Воркрафт (Варкрафт): Початок / Warcraft (2016) 1080p H.265 Ukr/Eng | Ukr/Sub Eng

Нові коментарі

Нова тема   Відповісти
Автор Повідомлення
-Star-Lord- 
VIP


З нами з: 09.08.18
Востаннє: 22.04.19
Повідомлень: 736

2019-03-11 00:22  
Воркрафт (Варкрафт): Початок / Warcraft (2016) 1080p H.265 Ukr/Eng | Sub Ukr/Eng

Воркрафт (Варкрафт): Початок / Warcraft (2016) 1080p H.265 Ukr/Eng | Ukr/Sub Eng


Жанр: пригоди, фентезі, дія
Країна: США, Канада, Японія, Китай
Кінокомпанія: Universal Pictures, Atlas Entertainment, Legendary Pictures, Blizzard Entertainment
Режисер: Дункан Джонс
Актори: Тревіс Фіммел, Бен Фостер, Тобі Кеббелл, Домінік Купер, Раян Роббінс, Роберт Казінськи, Паула Паттон, Кленсі Браун, Каллен Мулвей, Рут Неґґа

Сюжет:
Фантастичний фільм від режисера "Місяць 2112" і "Початкового Коду" Дункана Джонса. Епічна стрічка про протистояння людей і орків, заснована на серії популярних відеоігор та романів. Королівство Азерота знаходиться на порозі війни. Мирні жителі зі своїм ватажком Андуіном Лотаром стикаються із расою жорстоких загарбників - орків. Ті, в свою чергу, шукають нову землю, бо їхня батьківщина Дренор більше не придатна для життя. Два світи з'єднає Темний портал, за допомогою якого військо ватажка орків Дуротана увірветься на землі людей. Яка раса візьме гору в цій смертельній сутичці?

Тривалість: 02:03:07
Якість:
Відео:
кодек: H.265 (HEVC)
розмір кадру: 1920 x 790
бітрейт: 8 424 кб/с
бітова глибина: 10 біт
Увага! Перед завантаженням переконайтесь, що ваш пристрій відтворення (та/або ПЗ) підтримує H.265 (HEVC)

Аудіо # 1:
мова: українська
переклад: професійний дубльований
кодек: AC-3 2.0
бітрейт: 192 кб/с

Аудіо # 2:
мова: англійська
переклад: оригінал
кодек: AC-3 5.1
бітрейт: 640 кб/с

Субтитри # 1:
мова: українська (Forced),
тип: програмні (м'які)
формат: *.srt

Субтитри # 2:
мова: українська (Full),
тип: програмні (м'які)
формат: *.srt

Субтитри # 3:
мова: англійська (Full),
тип: програмні (м'які)
формат: *.srt


Info
Код:
General
Unique ID                                : 109518495757969033247299295615042845213 (0x52647EBB3BB2FCE496D0D92D1691FA1D)
Complete name                            : F:\Video\Warcraft (2016) 1080p H.265 [UKR_ENG] [Hurtom].
Format                                   :
Format version                           : Version 4 / Version 2
File size                                : 7.96 GiB
Duration                                 : 2 h 3 min
Overall bit rate                         : 9 258 kb/s
Movie name                               : Warcraft (2016)
Encoded date                             : UTC 2019-03-06 10:24:23
Writing application                      : v20.0.0 ('I Am The Sun') 64-bit
Writing library                          : libebml v1.3.5 + v1.4.8
Cover                                    : Yes
Attachments                              : cover

Video
ID                                       : 1
Format                                   : HEVC
Format/Info                              : High Efficiency Video Coding
Format profile                           : Main [email protected]@High
Codec ID                                 : V_MPEGH/ISO/HEVC
Duration                                 : 2 h 3 min
Bit rate                                 : 8 424 kb/s
Width                                    : 1 920 pixels
Height                                   : 790 pixels
Display aspect ratio                     : 2.40:1
Frame rate mode                          : Constant
Frame rate                               : 23.976 (24000/1001) FPS
Color space                              : YUV
Chroma subsampling                       : 4:2:0
Bit depth                                : 10 bits
Bits/(Pixel*Frame)                       : 0.232
Stream size                              : 7.24 GiB (91%)
Title                                    : Warcraft (2016)
Writing library                          : x265 2.9+9-f74003e88622:[Windows][GCC 8.2.0][64 bit] 10bit
Encoding settings                        : cpuid=1049583 / frame-threads=5 / numa-pools=4 / wpp / no-pmode / no-pme / no-psnr / no-ssim / log-level=3 / input-csp=1 / input-res=1920x790 / interlace=0 / total-frames=0 / level-idc=41 / high-tier=1 / uhd-bd=0 / ref=5 / allow-non-conformance / no-repeat-headers / annexb / no-aud / no-hrd / info / hash=0 / no-temporal-layers / open-gop / min-keyint=24 / keyint=240 / gop-lookahead=0 / bframes=16 / b-adapt=2 / b-pyramid / bframe-bias=0 / rc-lookahead=40 / lookahead-slices=5 / scenecut=40 / radl=0 / no-intra-refresh / ctu=64 / min-cu-size=8 / rect / no-amp / max-tu-size=32 / tu-inter-depth=1 / tu-intra-depth=1 / limit-tu=0 / rdoq-level=0 / dynamic-rd=0.00 / no-ssim-rd / signhide / no-tskip / nr-intra=0 / nr-inter=0 / no-constrained-intra / no-strong-intra-smoothing / max-merge=2 / limit-refs=3 / no-limit-modes / me=3 / subme=7 / merange=57 / temporal-mvp / weightp / weightb / no-analyze-src-pics / deblock=-3:-3 / no-sao / no-sao-non-deblock / rd=4 / no-early-skip / no-rskip / no-fast-intra / no-tskip-fast / no-cu-lossless / no-b-intra / no-splitrd-skip / rdpenalty=0 / psy-rd=4.00 / psy-rdoq=0.00 / no-rd-refine / no-lossless / cbqpoffs=0 / crqpoffs=0 / rc=crf / crf=18.0 / qcomp=0.60 / qpstep=4 / stats-write=0 / stats-read=0 / vbv-maxrate=50000 / vbv-bufsize=50000 / vbv-init=0.9 / crf-max=0.0 / crf-min=0.0 / ipratio=1.40 / pbratio=1.30 / aq-mode=3 / aq-strength=1.00 / cutree / zone-count=0 / no-strict-cbr / qg-size=32 / no-rc-grain / qpmax=69 / qpmin=0 / no-const-vbv / sar=1 / overscan=0 / videoformat=5 / range=0 / colorprim=1 / transfer=1 / colormatrix=1 / chromaloc=0 / display-window=0 / max-cll=0,0 / min-luma=0 / max-luma=1023 / log2-max-poc-lsb=8 / vui-timing-info / vui-hrd-info / slices=1 / no-opt-qp-pps / no-opt-ref-list-length-pps / no-multi-pass-opt-rps / scenecut-bias=0.05 / no-opt-cu-delta-qp / no-aq-motion / no-hdr / no-hdr-opt / no-dhdr10-opt / no-idr-recovery-sei / analysis-reuse-level=5 / scale-factor=0 / refine-intra=0 / refine-inter=0 / refine-mv=0 / no-limit-sao / ctu-info=0 / no-lowpass-dct / refine-mv-type=0 / copy-pic=1 / max-ausize-factor=1.0 / no-dynamic-refine / no-single-sei
Language                                 : English
Default                                  : Yes
Forced                                   : No
Color range                              : Limited
Color primaries                          : BT.709
Transfer characteristics                 : BT.709
Matrix coefficients                      : BT.709

Audio #1
ID                                       : 2
Format                                   : AC-3
Format/Info                              : Audio Coding 3
Codec ID                                 : A_AC3
Duration                                 : 2 h 3 min
Bit rate mode                            : Constant
Bit rate                                 : 192 kb/s
Channel(s)                               : 2 channels
Channel positions                        : Front: L R
Sampling rate                            : 48.0 kHz
Frame rate                               : 31.250 FPS (1536 SPF)
Bit depth                                : 16 bits
Compression mode                         : Lossy
Stream size                              : 169 MiB (2%)
Title                                    : ПД
Language                                 : Ukrainian
Service kind                             : Complete Main
Default                                  : Yes
Forced                                   : Yes

Audio #2
ID                                       : 3
Format                                   : AC-3
Format/Info                              : Audio Coding 3
Codec ID                                 : A_AC3
Duration                                 : 2 h 3 min
Bit rate mode                            : Constant
Bit rate                                 : 640 kb/s
Channel(s)                               : 6 channels
Channel positions                        : Front: L C R, Side: L R, LFE
Sampling rate                            : 48.0 kHz
Frame rate                               : 31.250 FPS (1536 SPF)
Bit depth                                : 16 bits
Compression mode                         : Lossy
Stream size                              : 564 MiB (7%)
Title                                    : Original
Language                                 : English
Service kind                             : Complete Main
Default                                  : No
Forced                                   : No

Text #1
ID                                       : 4
Format                                   : UTF-8
Codec ID                                 : S_TEXT/UTF8
Codec ID/Info                            : UTF-8 Plain Text
Duration                                 : 50 min 5 s
Bit rate                                 : 0 b/s
Count of elements                        : 6
Stream size                              : 221 Bytes (0%)
Title                                    : Forced
Language                                 : Ukrainian
Default                                  : Yes
Forced                                   : Yes

Text #2
ID                                       : 5
Format                                   : UTF-8
Codec ID                                 : S_TEXT/UTF8
Codec ID/Info                            : UTF-8 Plain Text
Duration                                 : 2 h 1 min
Bit rate                                 : 42 b/s
Count of elements                        : 1209
Stream size                              : 38.2 KiB (0%)
Title                                    : Full
Language                                 : Ukrainian
Default                                  : No
Forced                                   : No

Text #3
ID                                       : 6
Format                                   : UTF-8
Codec ID                                 : S_TEXT/UTF8
Codec ID/Info                            : UTF-8 Plain Text
Duration                                 : 1 h 53 min
Bit rate                                 : 41 b/s
Count of elements                        : 1393
Stream size                              : 34.8 KiB (0%)
Title                                    : Full
Language                                 : English
Default                                  : No
Forced                                   : No

Menu
00:00:00.000                             : en:Chapter 1
00:09:27.000                             : en:Chapter 2
00:15:51.000                             : en:Chapter 3
00:22:38.000                             : en:Chapter 4
00:29:18.000                             : en:Chapter 5
00:38:44.000                             : en:Chapter 6
00:46:45.000                             : en:Chapter 7
00:53:04.000                             : en:Chapter 8
00:56:19.000                             : en:Chapter 9
01:02:45.000                             : en:Chapter 10
01:07:50.000                             : en:Chapter 11
01:12:26.000                             : en:Chapter 12
01:17:14.000                             : en:Chapter 13
01:22:47.000                             : en:Chapter 14
01:26:34.000                             : en:Chapter 15
01:32:31.000                             : en:Chapter 16
01:40:23.000                             : en:Chapter 17
01:47:38.000                             : en:Chapter 18
01:51:13.000                             : en:Chapter 19
01:53:59.000                             : en:Chapter 20
Світлини





Підтримати купівлю інших фільмів можна тут.

Подяка пану Covenant за доріжку

Джерело: &
Особиста оцінка: 0 - не дивився


 Трекер:    Зареєстрований   

Завантажити / скачати фільм українською



відео для новачків



 Зареєстрований:   2019-03-11 00:22
 Розмір:   7.96 GB 
 Оцінка фільму:   10/10 (Голосів: 4)
   
Інші релізи
   Воркрафт (Варкрафт): Початок / Warcraft (2016) 720p-mini Drool  2 / 0   2.37 GB   2018-10-04 14:20 
   Воркрафт (Варкрафт): Початок / Warcraft (2016) 720p H.265 Ukr/Eng -ПАН КОЦЬКИЙ-  3 / 0   3.35 GB   2018-01-10 15:56 
   Воркрафт: Початок / Warcraft (2016) UHD Remux 4K 2160p HDR Ukr/Eng | Sub Ukr el_f_  5 / 0   40.99 GB   2018-01-05 18:19 
   Воркрафт: Початок / Warcraft (2016) Covenant  14 / 0   1.45 GB   2017-04-27 17:08 
   Воркрафт (Варкрафт): Початок / Warcraft (2016) 720p-mini (60 fps) Drool  3 / 0   4.2 GB   2017-02-24 17:23 
   Воркрафт (Варкрафт): Початок / Warcraft (2016) 1080p 3D [HalfOverUnder] Ukr/Eng -VipeR-  8 / 0   13.45 GB   2016-10-09 13:11 
   Воркрафт (Варкрафт): Початок / Warcraft (2016) 1080p Ukr/Eng | Sub Eng 11FrYkT  9 / 0   11.73 GB   2016-09-11 08:55 
   Воркрафт (Варкрафт): Початок / Warcraft (2016) 720p Ukr/Eng | Sub Eng 11FrYkT  7 / 0   4.85 GB   2016-09-10 22:46 
   Воркрафт (Варкрафт): Початок / Warcraft (2016) AVC Ukr/Eng | Sub Eng Загора  5 / 0   2.61 GB   2016-09-10 15:43 
   Воркрафт (Варкрафт): Початок / Warcraft (2016) 1080p Ukr/Eng corega  1 / 0   8.11 GB   2016-09-10 12:41 
   Воркрафт: Початок / Warcraft (2016) AVC Covenant  0 / 0   2.54 GB   2016-08-04 12:45 
Ваш часовий пояс: GMT + 2 Години

Нова тема   Відповісти