Зелена Книга / Green Book (2018) 1080p H.265 Ukr/Eng | Sub Ukr/Eng

Нові коментарі

Нова тема   Відповісти
Автор Повідомлення
-Star-Lord- 
VIP


З нами з: 09.08.18
Востаннє: 23.04.19
Повідомлень: 737

2019-03-10 23:54  
Зелена Книга / Green Book (2018) 1080p H.265 Ukr/Eng | Sub Ukr/Eng

Зелена Книга / Green Book (2018) 1080p H.265 Ukr/Eng | Sub Ukr/Eng


Жанр: біографічний, драма, комедія
Країна: США
Кінокомпанія: Participant Media, DreamWorks, Amblin Partners, Innisfree Pictures, Wessler Entertainment
Режисер: Пітер Фареллі / Peter Farrelly
Актори: Вігго Мортенсен / Viggo Mortensen, Магершала Алі / Mahershala Ali, Лінда Карделліні / Linda Cardellini, Себастьян Маніскалко / Sebastian Maniscalco, Дімітар Марінов / Dimiter D. Marinov, Пі Джей Бірн / P.J. Byrne, Нік Валлелонга / Nick Vallelonga та інші

Сюжет:
Історія, заснована на реальній дружбі. У 1962 році простого викидайла італійського походження Тоні Ліпа (Вігго Мортенсен) наймають водієм на час туру одного з найкращих піаністів світу, афроамериканського джазового піаніста Дона Ширлі (Магершала Алі), півднем США, де панують расистські погляди. Дорогою вони користуються "Зеленою книгою, що містить інформацію про безпечні місця для кольорових. Ця подорож відкриє очі двом різним героям на світ та змінить їх життя.

Тривалість: 02:10:04
Якість:
Відео:
кодек: H.265 (HEVC)
розмір кадру: 1920 x 956
бітрейт: 6 214 кб/с
бітова глибина: 10 біт
Увага! Перед завантаженням переконайтесь, що ваш пристрій відтворення (та/або ПЗ) підтримує H.265 (HEVC)

Аудіо # 1:
мова: українська
переклад: професійний дубльований
кодек: AC-3 2.0
бітрейт: 192 кб/с

Аудіо # 2:
мова: англійська
переклад: оригінал
кодек: 5.1
бітрейт: 1510 кб/с

Субтитри # 1:
мова: українська (Forced),
тип: програмні (м'які)
формат: *.

Субтитри # 2:
мова: українська (Full by kinovar),
тип: програмні (м'які)
формат: *.srt

Субтитри # 3:
мова: англійська (Full),
тип: програмні (м'які)
формат: *.srt

Субтитри # 4:
мова: англійська (SDH),
тип: програмні (м'які)
формат: *.srt


Info
Код:
General
Unique ID                                : 131278623210391935329635488382303353387 (0x62C357D8ABB21E19BC549FE846F83A2B)
Complete name                            : F:\Video\Green Book (2018) 1080p H.265 [UKR_ENG] [Hurtom].
Format                                   :
Format version                           : Version 4 / Version 2
File size                                : 7.19 GiB
Duration                                 : 2 h 10 min
Overall bit rate                         : 7 918 kb/s
Movie name                               : Green Book (2018)
Encoded date                             : UTC 2019-03-09 17:11:42
Writing application                      : v20.0.0 ('I Am The Sun') 64-bit
Writing library                          : libebml v1.3.5 + v1.4.8
Cover                                    : Yes
Attachments                              : cover.jpg

Video
ID                                       : 1
Format                                   : HEVC
Format/Info                              : High Efficiency Video Coding
Format profile                           : Main [email protected]@High
Codec ID                                 : V_MPEGH/ISO/HEVC
Duration                                 : 2 h 10 min
Bit rate                                 : 6 214 kb/s
Width                                    : 1 920 pixels
Height                                   : 956 pixels
Display aspect ratio                     : 2.008
Frame rate mode                          : Constant
Frame rate                               : 23.976 (24000/1001) FPS
Color space                              : YUV
Chroma subsampling                       : 4:2:0
Bit depth                                : 10 bits
Bits/(Pixel*Frame)                       : 0.141
Stream size                              : 5.65 GiB (78%)
Title                                    : Green Book (2018)
Writing library                          : x265 2.9+9-f74003e88622:[Windows][GCC 8.2.0][64 bit] 10bit
Encoding settings                        : cpuid=1111039 / frame-threads=13 / numa-pools=12 / wpp / no-pmode / no-pme / no-psnr / no-ssim / log-level=3 / input-csp=1 / input-res=1920x956 / interlace=0 / total-frames=0 / level-idc=41 / high-tier=1 / uhd-bd=0 / ref=3 / allow-non-conformance / no-repeat-headers / annexb / no-aud / no-hrd / info / hash=0 / no-temporal-layers / open-gop / min-keyint=24 / keyint=240 / gop-lookahead=0 / bframes=4 / b-adapt=2 / b-pyramid / bframe-bias=0 / rc-lookahead=20 / lookahead-slices=4 / scenecut=40 / radl=0 / no-intra-refresh / ctu=64 / min-cu-size=8 / rect / no-amp / max-tu-size=32 / tu-inter-depth=3 / tu-intra-depth=3 / limit-tu=0 / rdoq-level=2 / dynamic-rd=0.00 / no-ssim-rd / signhide / no-tskip / nr-intra=0 / nr-inter=0 / no-constrained-intra / no-strong-intra-smoothing / max-merge=3 / limit-refs=3 / no-limit-modes / me=3 / subme=7 / merange=57 / temporal-mvp / weightp / no-weightb / no-analyze-src-pics / deblock=-3:-3 / no-sao / no-sao-non-deblock / rd=6 / no-early-skip / rskip / no-fast-intra / no-tskip-fast / no-cu-lossless / no-b-intra / no-splitrd-skip / rdpenalty=0 / psy-rd=2.00 / psy-rdoq=0.00 / no-rd-refine / no-lossless / cbqpoffs=0 / crqpoffs=0 / rc=crf / crf=19.5 / qcomp=0.70 / qpstep=4 / stats-write=0 / stats-read=0 / vbv-maxrate=50000 / vbv-bufsize=50000 / vbv-init=0.9 / crf-max=0.0 / crf-min=0.0 / ipratio=1.40 / pbratio=1.30 / aq-mode=1 / aq-strength=1.00 / cutree / zone-count=0 / no-strict-cbr / qg-size=32 / no-rc-grain / qpmax=69 / qpmin=0 / no-const-vbv / sar=1 / overscan=0 / videoformat=5 / range=0 / colorprim=1 / transfer=1 / colormatrix=1 / chromaloc=0 / display-window=0 / max-cll=0,0 / min-luma=0 / max-luma=1023 / log2-max-poc-lsb=8 / vui-timing-info / vui-hrd-info / slices=1 / no-opt-qp-pps / no-opt-ref-list-length-pps / no-multi-pass-opt-rps / scenecut-bias=0.05 / no-opt-cu-delta-qp / aq-motion / no-hdr / no-hdr-opt / no-dhdr10-opt / no-idr-recovery-sei / analysis-reuse-level=5 / scale-factor=0 / refine-intra=0 / refine-inter=0 / refine-mv=0 / no-limit-sao / ctu-info=0 / no-lowpass-dct / refine-mv-type=0 / copy-pic=1 / max-ausize-factor=1.0 / no-dynamic-refine / no-single-sei
Language                                 : English
Default                                  : Yes
Forced                                   : No
Color range                              : Limited
Color primaries                          : BT.709
Transfer characteristics                 : BT.709
Matrix coefficients                      : BT.709

Audio #1
ID                                       : 2
Format                                   : AC-3
Format/Info                              : Audio Coding 3
Codec ID                                 : A_AC3
Duration                                 : 2 h 10 min
Bit rate mode                            : Constant
Bit rate                                 : 192 kb/s
Channel(s)                               : 2 channels
Channel positions                        : Front: L R
Sampling rate                            : 48.0 kHz
Frame rate                               : 31.250 FPS (1536 SPF)
Bit depth                                : 16 bits
Compression mode                         : Lossy
Stream size                              : 179 MiB (2%)
Title                                    : ПД
Language                                 : Ukrainian
Service kind                             : Complete Main
Default                                  : Yes
Forced                                   : Yes

Audio #2
ID                                       : 3
Format                                   :
Format/Info                              : Digital Theater Systems
Codec ID                                 : A_DTS
Duration                                 : 2 h 10 min
Bit rate mode                            : Constant
Bit rate                                 : 1 509 kb/s
Channel(s)                               : 6 channels
Channel positions                        : Front: L C R, Side: L R, LFE
Sampling rate                            : 48.0 kHz
Frame rate                               : 93.750 FPS (512 SPF)
Bit depth                                : 16 bits
Compression mode                         : Lossy
Stream size                              : 1.37 GiB (19%)
Title                                    : Original
Language                                 : English
Default                                  : No
Forced                                   : No

Text #1
ID                                       : 4
Format                                   :
Codec ID                                 : S_TEXT/
Codec ID/Info                            : Advanced Sub Station Alpha
Duration                                 : 2 h 2 min
Bit rate                                 : 2 b/s
Count of elements                        : 33
Compression mode                         : Lossless
Stream size                              : 2.36 KiB (0%)
Title                                    : Forced
Default                                  : Yes
Forced                                   : Yes

Text #2
ID                                       : 5
Format                                   : UTF-8
Codec ID                                 : S_TEXT/UTF8
Codec ID/Info                            : UTF-8 Plain Text
Duration                                 : 2 h 1 min
Bit rate                                 : 96 b/s
Count of elements                        : 1515
Stream size                              : 85.7 KiB (0%)
Title                                    : Full by kinovar
Language                                 : Ukrainian
Default                                  : No
Forced                                   : No

Text #3
ID                                       : 6
Format                                   : UTF-8
Codec ID                                 : S_TEXT/UTF8
Codec ID/Info                            : UTF-8 Plain Text
Duration                                 : 2 h 1 min
Bit rate                                 : 62 b/s
Count of elements                        : 1734
Stream size                              : 55.8 KiB (0%)
Title                                    : Full
Language                                 : English
Default                                  : No
Forced                                   : No

Text #4
ID                                       : 7
Format                                   : UTF-8
Codec ID                                 : S_TEXT/UTF8
Codec ID/Info                            : UTF-8 Plain Text
Duration                                 : 2 h 7 min
Bit rate                                 : 65 b/s
Count of elements                        : 1968
Stream size                              : 61.4 KiB (0%)
Title                                    : SDH
Language                                 : English
Default                                  : No
Forced                                   : No

Menu
00:00:00.000                             : en:00:00:00.000
00:05:43.009                             : en:00:05:43.009
00:11:50.043                             : en:00:11:50.043
00:18:17.805                             : en:00:18:17.805
00:23:46.675                             : en:00:23:46.675
00:28:37.382                             : en:00:28:37.382
00:34:38.785                             : en:00:34:38.785
00:41:13.304                             : en:00:41:13.304
00:46:44.593                             : en:00:46:44.593
00:54:19.173                             : en:00:54:19.173
01:02:42.342                             : en:01:02:42.342
01:10:42.655                             : en:01:10:42.655
01:16:16.155                             : en:01:16:16.155
01:24:30.274                             : en:01:24:30.274
01:30:37.724                             : en:01:30:37.724
01:36:53.266                             : en:01:36:53.266
01:44:56.081                             : en:01:44:56.081
01:51:12.124                             : en:01:51:12.124
01:54:38.872                             : en:01:54:38.872
02:02:25.505                             : en:02:02:25.505
Світлини





Підтримати купівлю інших фільмів можна тут.

Подяка пану AngryBirdsUA за доріжку

Джерело: &
Особиста оцінка: 0 - не дивився


 Трекер:    Зареєстрований   

Завантажити / скачати фільм українською



відео для новачків



 Зареєстрований:   2019-03-10 23:54
 Розмір:   7.19 GB 
 Оцінка фільму:   9.6/10 (Голосів: 21)
   
Інші релізи
   Зелена Книга / Green Book (2018) Ukr/Eng | Sub Ukr/Eng igor911  207 / 1   2.36 GB   2019-03-06 22:43 
   Зелена Книга / Green Book (2018) uafilm.tv  157 / 5   1.46 GB   2019-03-06 22:13 
   Зелена Книга / Green Book (2018) 1080p Ukr/Eng | Sub Ukr/Eng igor911  133 / 0   16.09 GB   2019-03-06 20:51 
   Зелена Книга / Green Book (2018) Remux 1080p Ukr/Eng | Sub Ukr/Eng staf777  48 / 0   30.66 GB   2019-03-06 19:39 
   Зелена Книга / Green Book (2018) 720p Ukr/Eng | Sub Ukr/Eng igor911  213 / 1   6.94 GB   2019-03-06 17:37 
   Зелена Книга / Green Book (2018) AVC Ukr/Eng | Sub Ukr/Eng 11FrYkT  400 / 0   2.35 GB   2019-03-06 17:25 
   Зелена Книга / Green Book (2018) Eng | sub Ukr kinovar  90 / 0   1.42 GB   2019-02-06 10:00 
Mongoose 
Свій


З нами з: 27.03.16
Востаннє: 23.04.19
Повідомлень: 142

2019-04-12 23:04  
Дивився
На один раз, але файне кіно, рекомендую

RaBBiTin3D 
Новенький


З нами з: 16.04.15
Востаннє: 22.04.19
Повідомлень: 8

2019-04-13 02:47  
Чудовий фільм, усім рекомендую
Ваш часовий пояс: GMT + 2 Години

Нова тема   Відповісти