Старскі та Гатч / Starsky & Hutch (2004) Remux 1080p 6xUkr/Eng | Sub Eng

Нові коментарі

Нова тема   Відповісти
Автор Повідомлення
staf777 
Відео Гуртом - підтримка та поширення
Відео Гуртом - підтримка та поширення


З нами з: 16.11.16
Востаннє: 22.04.19
Повідомлень: 2283

2019-03-10 13:22  
Старскі та Гатч / Starsky & Hutch (2004) Remux 1080p 6xUkr/Eng | Sub Eng

Старскі та Гатч / Starsky & Hutch (2004) Remux 1080p 6xUkr/Eng | Sub Eng


Жанр: комедія, кримінальний
Країна: США



Кінокомпанія: Dimension Films, Warner Bros., AR-TL
Режисер: Тодд Філіпс / Todd Phillips
Актори: Бен Стіллер / Ben Stiller, Оввен Вілсон / Owen Wilson, Снуп Доґ / Snoop Dogg, Фред Вільямсон / Fred Williamson, Вінс Вон / Vince Vaughn, Жульєт Левіс / Juliette Lewis, Джейсон Бейтмен / Jason Bateman, Емі смарт / Amy Smart, Кармен Електра / Carmen Electra, Джордж Ченґ / George Cheung, Кріс Пен / Chris Penn та інші.

Сюжет:
Детектив Дейвід Старскі - досвідчений поліцейський, який працює на вулицях Бей-Сіті у Каліфорнії. Він весь час намагається довести собі та оточуючим, що може виконувати свої обов’язки не гірше, ніж його мати - легенда міської поліції. У детектива Кена Гатчінсона інші погляди на образ ідеального охоронця закону. Шеф поліції вирішує об’єднати таланти двох полісменів, зробивши їх напарниками.


Тривалість: 01:40:30
Якість: Remux 1080p

Відео:
кодек:
розмір кадру: 1920x1080
бітрейт: 23,1 Mб/с

Аудіо # 1:
мова: українська
переклад: професійний дубльований
кодек: 2.0
бітрейт: 192 кб/с

Аудіо # 2:
мова: українська
переклад: багатоголосий закадровий
кодек: 2.0
бітрейт: 192 кб/с

Аудіо # 3:
мова: українська
переклад: багатоголосий закадровий
кодек: 2.0
бітрейт: 192 кб/с

Аудіо # 4:
мова: українська
переклад: багатоголосий закадровий
кодек: 2.0
бітрейт: 192 кб/с

Аудіо # 5:
мова: українська
переклад: багатоголосий закадровий
кодек: 2.0
бітрейт: 192 кб/с

Аудіо # 6:
мова: українська
переклад: двоголосий закадровий
кодек: 2.0
бітрейт: 192 кб/с

Аудіо # 7:
мова: англійська
переклад: оригінал
кодек: PCM 5.1
бітрейт: 4608 кб/с

Субтитри:
мова: англійська
тип: програмні (м'які)
формат: *.srt
Info
General
Unique ID : 99813277099881656051991423111403346323 (0x4B175682047532ABF776D4A4053B1993)
Complete name : S:\» HD українською » Фільми в HD\Комедія\Starsky & Hutch (2004) Remux 1080p [6xUKR_ENG] [Hurtom].
Format :
Format version : Version 4
File size : 20.2 GiB
Duration : 1 h 40 min
Overall bit rate mode : Variable
Overall bit rate : 28.8 Mb/s
Movie name : Starsky & Hutch (2004) Remux 1080p [6xUKR_ENG] [Hurtom]
Encoded date : UTC 2019-03-23 12:31:22
Writing application : v30.1.0 ('Forever And More') 64-bit
Writing library : libebml v1.3.6 + v1.4.9
Cover : Yes
Attachments : cover.jpg

Video
ID : 1
Format : AVC
Format/Info : Advanced Video Codec
Format profile : [email protected]
Format settings : CABAC / 2 Ref Frames
Format settings, CABAC : Yes
Format settings, ReFrames : 2 frames
Codec ID : V_MPEG4/ISO/AVC
Duration : 1 h 40 min
Bit rate mode : Variable
Bit rate : 23.1 Mb/s
Width : 1 920 pixels
Height : 1 080 pixels
Display aspect ratio : 16:9
Frame rate mode : Constant
Frame rate : 23.976 (24000/1001) FPS
Color space : YUV
Chroma subsampling : 4:2:0
Bit depth : 8 bits
Scan type : Progressive
Bits/(Pixel*Frame) : 0.464
Stream size : 16.2 GiB (80%)
Default : Yes
Forced : No

Audio #1
ID : 2
Format : AC-3
Format/Info : Audio Coding 3
Commercial name : Dolby Digital
Codec ID : A_AC3
Duration : 1 h 40 min
Bit rate mode : Constant
Bit rate : 192 kb/s
Channel(s) : 2 channels
Channel layout : L R
Sampling rate : 48.0 kHz
Frame rate : 31.250 FPS (1536 SPF)
Bit depth : 16 bits
Compression mode : Lossy
Stream size : 138 MiB (1%)
Title : Dub [NLO], 2.0 192 Kbps
Language : Ukrainian
Service kind : Complete Main
Default : Yes
Forced : Yes

Audio #2
ID : 3
Format : AC-3
Format/Info : Audio Coding 3
Commercial name : Dolby Digital
Codec ID : A_AC3
Duration : 1 h 40 min
Bit rate mode : Constant
Bit rate : 192 kb/s
Channel(s) : 2 channels
Channel layout : L R
Sampling rate : 48.0 kHz
Frame rate : 31.250 FPS (1536 SPF)
Bit depth : 16 bits
Compression mode : Lossy
Stream size : 138 MiB (1%)
Title : MVO [AMC], 2.0 [stereo] 192 Kbps
Language : Ukrainian
Service kind : Complete Main
Default : No
Forced : No

Audio #3
ID : 4
Format : AC-3
Format/Info : Audio Coding 3
Commercial name : Dolby Digital
Codec ID : A_AC3
Duration : 1 h 40 min
Bit rate mode : Constant
Bit rate : 192 kb/s
Channel(s) : 2 channels
Channel layout : L R
Sampling rate : 48.0 kHz
Frame rate : 31.250 FPS (1536 SPF)
Bit depth : 16 bits
Compression mode : Lossy
Stream size : 138 MiB (1%)
Title : MVO [Novy], 2.0 192 Kbps
Language : Ukrainian
Service kind : Complete Main
Default : No
Forced : No

Audio #4
ID : 5
Format : AC-3
Format/Info : Audio Coding 3
Commercial name : Dolby Digital
Codec ID : A_AC3
Duration : 1 h 40 min
Bit rate mode : Constant
Bit rate : 192 kb/s
Channel(s) : 2 channels
Channel layout : L R
Sampling rate : 48.0 kHz
Frame rate : 31.250 FPS (1536 SPF)
Bit depth : 16 bits
Compression mode : Lossy
Stream size : 138 MiB (1%)
Title : MVO [K1], 2.0 192 Kbps
Language : Ukrainian
Service kind : Complete Main
Default : No
Forced : No

Audio #5
ID : 6
Format : AC-3
Format/Info : Audio Coding 3
Commercial name : Dolby Digital
Codec ID : A_AC3
Duration : 1 h 40 min
Bit rate mode : Constant
Bit rate : 192 kb/s
Channel(s) : 2 channels
Channel layout : L R
Sampling rate : 48.0 kHz
Frame rate : 31.250 FPS (1536 SPF)
Bit depth : 16 bits
Compression mode : Lossy
Stream size : 138 MiB (1%)
Title : MVO [ICTV], 2.0 192 Kbps
Language : Ukrainian
Service kind : Complete Main
Default : No
Forced : No

Audio #6
ID : 7
Format : AC-3
Format/Info : Audio Coding 3
Commercial name : Dolby Digital
Codec ID : A_AC3
Duration : 1 h 40 min
Bit rate mode : Constant
Bit rate : 192 kb/s
Channel(s) : 2 channels
Channel layout : L R
Sampling rate : 48.0 kHz
Frame rate : 31.250 FPS (1536 SPF)
Bit depth : 16 bits
Compression mode : Lossy
Stream size : 138 MiB (1%)
Title : DVO [1+1], 2.0 192 Kbps
Language : Ukrainian
Service kind : Complete Main
Default : No
Forced : No

Audio #7
ID : 8
Format : PCM
Format settings : Little / Signed
Codec ID : A_PCM/INT/LIT
Duration : 1 h 40 min
Bit rate mode : Constant
Bit rate : 4 608 kb/s
Channel(s) : 6 channels
Sampling rate : 48.0 kHz
Frame rate : 200.000 FPS (240 SPF)
Bit depth : 16 bits
Stream size : 3.23 GiB (16%)
Language : English
Default : No
Forced : No

Text
ID : 9
Format : UTF-8
Codec ID : S_TEXT/UTF8
Codec ID/Info : UTF-8 Plain Text
Duration : 1 h 35 min
Bit rate : 91 b/s
Count of elements : 1641
Stream size : 64.4 KiB (0%)
Title : Full
Language : English
Default : No
Forced : No




Над доріжками працювали: Bohdan237, Sando7, slavik_v_z, Technomate, OlegCena, Romario_O, Gelios
Джерело:
Особиста оцінка: 10 - без зайвих вагань рекомендую всім!


Золотий реліз (завантажене не впливає на рейтинг)
 Трекер:    Зареєстрований   

Завантажити / скачати фільм українською



відео для новачків



 Зареєстрований:   2019-03-23 17:40
 Розмір:   20.24 GB 
 Оцінка фільму:   9.6/10 (Голосів: 10)
   
Cumva 
Частий відвідувач


З нами з: 03.07.12
Востаннє: 23.04.19
Повідомлень: 35

2019-03-11 04:18  
6 доріжок?!
Шикарний пак Happy

bot 
робот


З нами з: 30.09.07
Востаннє: 26.05.05
Повідомлень: 21236

2019-03-23 17:40  
Тему перенесено з Анонси релізів до форуму Фільми в HD


staf777

alexcaptain 
Свій


З нами з: 20.03.14
Востаннє: 22.04.19
Повідомлень: 93

2019-03-23 21:48  
Cumva
І всі ніякі, але все одно дуже дякую за релізю давно хотів подивитись на рідній

Ваш часовий пояс: GMT + 2 Години

Нова тема   Відповісти