Змивайся / Flushed Away (2006) 1080p 2xUkr/Eng | Sub Ukr/Eng

Нові коментарі

Нова тема   Відповісти
Автор Повідомлення
Anonymous 







2019-03-10 13:03  
Змивайся / Flushed Away (2006) 1080p 2xUkr/Eng | Sub Ukr/Eng

Змивайся / Flushed Away (2006) 1080p 2xUkr/Eng | Sub Ukr/Eng


Жанр: анімація, пригодницький, комедія, сімейний
Країна: Велика Британія, США



Кінокомпанія: DreamWorks Animation, Aardman Animations, Paramount Pictures
Режисер: Девід Бауерс, Сем Фелл
Актори: Х'ю Джекман, Кейт Вінслет, Іен Маккеллен, Жан Рено, Білл Най, Енді Серкіс

Сюжет:
Родді - привілейований щур, який живе життям домашнього улюбленця в розкішному пентхаусі. Одного разу засмічена раковина "випльовує" в квартиру каналізаційного щура Сіда, якому припадають до душі розкішні апартаменти. Щоб позбутися надокучливого гостя, Родді вирішує змити його в унітаз, але мешканець каналізації не такий простак, яким здається, і в результаті в унітазі опиняється сам Родді. Потрапивши в каналізацію, він має звикнути до цілком нового, незнайомого життя.


Тривалість: 01:25:02
Якість: 1080p
Відео:
кодек:
розмір кадру: 1920х1040
бітрейт: 9 530 кб/с

Аудіо # 1:
мова: українська
переклад: професійний дубльований
кодек: 5.1
бітрейт: 384 кб/с

Аудіо # 2:
мова: українська
переклад: багатоголосий закадровий
кодек: 2.0
бітрейт: 192 кб/с

Аудіо # 3:
мова: англійська
переклад: оригінал
кодек: 5.1
бітрейт: 1 509 кб/с

Субтитри #1:
мова: українська
тип: програмні (м'які)
формат: *.

Субтитри #2-3:
мова: англійська
тип: програмні (м'які)
формат: *.srt
Info
General
Unique ID : 174481684599214955831901661464040940656 (0x8343F33A84CECD5EB128E059524DA470)
Complete name : H:\Toloka\2019\Flushed Away (2006) 1080p.
Format :
Format version : Version 4
File size : 6.90 GiB
Duration : 1 h 25 min
Overall bit rate : 11.6 Mb/s
Encoded date : UTC 2019-03-10 09:50:17
Writing application : v6.1.0 ('Old Devil') built on Mar 4 2013 09:10:42
Writing library : libebml v1.3.0 + v1.4.0

Video
ID : 1
Format : AVC
Format/Info : Advanced Video Codec
Format profile : [email protected]
Format settings : CABAC / 4 Ref Frames
Format settings, CABAC : Yes
Format settings, RefFrames : 4 frames
Codec ID : V_MPEG4/ISO/AVC
Duration : 1 h 25 min
Bit rate : 9 530 kb/s
Width : 1 920 pixels
Height : 1 040 pixels
Display aspect ratio : 1.85:1
Frame rate mode : Constant
Frame rate : 23.976 (24000/1001) FPS
Color space : YUV
Chroma subsampling : 4:2:0
Bit depth : 8 bits
Scan type : Progressive
Bits/(Pixel*Frame) : 0.199
Stream size : 5.52 GiB (80%)
Writing library : core 157 r2935 545de2f
Encoding settings : cabac=1 / ref=4 / deblock=1:-3:-3 / analyse=0x3:0x113 / me=umh / subme=8 / psy=1 / psy_rd=0.95:0.00 / mixed_ref=1 / me_range=32 / chroma_me=1 / trellis=2 / 8x8dct=1 / cqm=0 / deadzone=21,11 / fast_pskip=1 / chroma_qp_offset=-2 / threads=32 / lookahead_threads=5 / sliced_threads=0 / nr=0 / decimate=1 / interlaced=0 / bluray_compat=0 / constrained_intra=0 / bframes=3 / b_pyramid=2 / b_adapt=2 / b_bias=0 / direct=3 / weightb=1 / open_gop=0 / weightp=2 / keyint=240 / keyint_min=24 / scenecut=40 / intra_refresh=0 / rc_lookahead=50 / rc=2pass / mbtree=1 / bitrate=9530 / ratetol=1.0 / qcomp=0.60 / qpmin=0 / qpmax=69 / qpstep=4 / cplxblur=20.0 / qblur=0.5 / ip_ratio=1.40 / aq=3:0.80
Default : Yes
Forced : No
Statistics Tags Issue : no_variable_data 1970-01-01 00:00:00 / v6.1.0 ('Old Devil') built on Mar 4 2013 09:10:42 2019-03-10 09:50:17
FromStats_BitRate : 9529818
FromStats_Duration : 01:25:02.306000000
FromStats_FrameCount : 122333
FromStats_StreamSize : 6078006323

Audio #1
ID : 2
Format : AC-3
Format/Info : Audio Coding 3
Commercial name : Dolby Digital
Codec ID : A_AC3
Duration : 1 h 25 min
Bit rate mode : Constant
Bit rate : 384 kb/s
Channel(s) : 6 channels
Channel layout : L R C LFE Ls Rs
Sampling rate : 48.0 kHz
Frame rate : 31.250 FPS (1536 SPF)
Bit depth : 16 bits
Compression mode : Lossy
Delay relative to video : 23 s 952 ms
Stream size : 234 MiB (3%)
Title : UKR (DVD)
Language : Ukrainian
Service kind : Complete Main
Default : Yes
Forced : Yes

Audio #2
ID : 3
Format : AC-3
Format/Info : Audio Coding 3
Commercial name : Dolby Digital
Codec ID : A_AC3
Duration : 1 h 25 min
Bit rate mode : Constant
Bit rate : 192 kb/s
Channel(s) : 2 channels
Channel layout : L R
Sampling rate : 48.0 kHz
Frame rate : 31.250 FPS (1536 SPF)
Bit depth : 16 bits
Compression mode : Lossy
Delay relative to video : 23 s 952 ms
Stream size : 117 MiB (2%)
Title : UKR (Новий)
Language : Ukrainian
Service kind : Complete Main
Default : No
Forced : No

Audio #3
ID : 4
Format :
Format/Info : Digital Theater Systems
Codec ID : A_DTS
Duration : 1 h 25 min
Bit rate mode : Constant
Bit rate : 1 509 kb/s
Channel(s) : 6 channels
Channel layout : C L R Ls Rs LFE
Sampling rate : 48.0 kHz
Frame rate : 93.750 FPS (512 SPF)
Bit depth : 24 bits
Compression mode : Lossy
Stream size : 918 MiB (13%)
Language : English
Default : No
Forced : No
Statistics Tags Issue : no_variable_data 1970-01-01 00:00:00 / v6.1.0 ('Old Devil') built on Mar 4 2013 09:10:42 2019-03-10 09:50:17
FromStats_BitRate : 1508999
FromStats_Duration : 01:25:02.315000000
FromStats_FrameCount : 478342
FromStats_StreamSize : 962424104

Text #1
ID : 5
Format :
Codec ID : S_TEXT/
Codec ID/Info : Advanced Sub Station Alpha
Compression mode : Lossless
Title : UKR
Language : Ukrainian
Default : Yes
Forced : No

Text #2
ID : 6
Format : UTF-8
Codec ID : S_TEXT/UTF8
Codec ID/Info : UTF-8 Plain Text
Language : English
Default : No
Forced : No
Statistics Tags Issue : no_variable_data 1970-01-01 00:00:00 / v6.1.0 ('Old Devil') built on Mar 4 2013 09:10:42 2019-03-10 09:50:17
FromStats_BitRate : 67
FromStats_Duration : 01:23:46.105000000
FromStats_FrameCount : 1331
FromStats_StreamSize : 42485

Text #3
ID : 7
Format : UTF-8
Codec ID : S_TEXT/UTF8
Codec ID/Info : UTF-8 Plain Text
Title : SDH
Language : English
Default : No
Forced : No
Statistics Tags Issue : no_variable_data 1970-01-01 00:00:00 / v6.1.0 ('Old Devil') built on Mar 4 2013 09:10:42 2019-03-10 09:50:17
FromStats_BitRate : 82
FromStats_Duration : 01:23:46.855000000
FromStats_FrameCount : 1639
FromStats_StreamSize : 52024

Menu
00:00:00.000 : en:Chapter 01
00:04:16.131 : en:Chapter 02
00:07:47.717 : en:Chapter 03
00:11:23.182 : en:Chapter 04
00:14:08.014 : en:Chapter 05
00:19:29.585 : en:Chapter 06
00:24:36.183 : en:Chapter 07
00:28:05.809 : en:Chapter 08
00:31:25.634 : en:Chapter 09
00:37:35.670 : en:Chapter 10
00:43:08.336 : en:Chapter 11
00:47:14.957 : en:Chapter 12
00:53:05.557 : en:Chapter 13
00:58:12.739 : en:Chapter 14
01:04:23.151 : en:Chapter 15
01:07:48.731 : en:Chapter 16
01:11:18.316 : en:Chapter 17
01:16:35.716 : en:Chapter 18
Скріншоти






За українську доріжку №2 подяка п.: Sando7, patriot2305
Особиста подяка пану denixx за надану матеріальну допомогу на підтримку цього і майбутніх релізів.
Джерело:


 Трекер:    Зареєстрований   

Завантажити / скачати мультфільм українською



відео для новачків



 Зареєстрований:   2019-03-10 13:03
 Розмір:   6.9 GB 
 Оцінка мультфільму:   10/10 (Голосів: 6)
   
Інші релізи
   Змивайся / Flushed Away (2006) AVC 2xUkr/2xEng | Sub Ukr/2xEng tarasyk98  1 / 0   1.79 GB   2015-04-27 19:03 
   Змивайся / Flushed Away (2006) 2xUkr patriot2305  5 / 0   1.45 GB   2015-04-27 08:28 
   Змивайся / Flushed Away (2006) [ 5.1] vpalii  1 / 0   223 MB   2013-11-04 20:57 
   Змивайся / Flushed Away (2006) 720p Ukr/Eng | Sub Ukr/Eng braveboy  7 / 0   4.37 GB   2012-05-02 23:18 
   Змивайся / Flushed Away (2006) DVD9 Ukr/Rus/Eng vpalii  3 / 0   6.7 GB   2008-10-26 21:20 
Ваш часовий пояс: GMT + 2 Години

Нова тема   Відповісти