Правда та наслідки / Truth or Consequences, N.M. (1997) 1080p Ukr/Eng | Sub Eng

Нові коментарі

Нова тема   Відповісти
Автор Повідомлення
Anonymous 







2019-03-10 11:14  
Правда та наслідки / Truth or Consequences, N.M. (1997) 1080p Ukr/Eng | Sub Eng

Правда та наслідки / Truth or Consequences, N.M. (1997) 1080p Ukr/Eng | Sub Eng


Жанр: бойовик, кримінальний, драма
Країна: США



Кінокомпанія: Higgins-Messick-Wayne, Ink Slinger Productions, Triumph Films
Режисер: Кіфер Сазерленд
Актори: Кім Діккенс, Род Стайгер, Мартін Шин, Кіфер Сазерленд, Рік Россовіч, Грейс Філліпс, Джеймс МакДеніел, Вінсент Галло, Мікелті Вільямсон, Макс Перліх, Кевін Поллак

Сюжет:
Раймонд Лембек (В. Галло) ледь вийшовши з в'язниці, де відбував термін за торгівлю наркотиками, знову йде на справу. Разом зі своєю подружкою Едді (К. Діккенс) і двома приятелями, Кертісом (К. Сазерленд) і Маркусом (М. Вільямсон), він грабує великого наркоторговця. Перестрілка призводить до загибелі декількох людей. Міський департамент поліції по боротьбі з наркотиками поставлений на ноги. Сховавшись у маленькому містечку в Нью-Мексико, друзі пробують продати "товар" ватажка мафії Тоні Ваго, не підозрюючи, що він йому і належить. Надії друзів на спокійне життя в глибинці тануть з кожною хвилиною.


Тривалість: 01:46:51
Якість: 1080p
Відео:
кодек:
розмір кадру: 1920х1040
бітрейт: 8742 кб/с

Аудіо # 1:
мова: українська
переклад: двоголосий закадровий
кодек: 2.0
бітрейт: 192 кб/с

Аудіо # 2:
мова: англійська
переклад: оригінал
кодек: 5.1
бітрейт: 1509 кб/с

Субтитри:
мова: англійська
тип: програмні (м'які)
формат: *.srt
Info
General
Unique ID : 228740725650746476454431905821894456307 (0xAC15DC7E5D388532BCF2F13EC94933F3)
Complete name : H:\Toloka\2019\Truth or Consequences N.M. (1997) 1080p.
Format :
Format version : Version 4
File size : 7.79 GiB
Duration : 1 h 46 min
Overall bit rate : 10.4 Mb/s
Encoded date : UTC 2019-03-10 09:08:00
Writing application : v6.1.0 ('Old Devil') built on Mar 4 2013 09:10:42
Writing library : libebml v1.3.0 + v1.4.0

Video
ID : 1
Format : AVC
Format/Info : Advanced Video Codec
Format profile : [email protected]
Format settings : CABAC / 4 Ref Frames
Format settings, CABAC : Yes
Format settings, RefFrames : 4 frames
Codec ID : V_MPEG4/ISO/AVC
Duration : 1 h 46 min
Bit rate : 8 742 kb/s
Width : 1 920 pixels
Height : 1 040 pixels
Display aspect ratio : 1.85:1
Frame rate mode : Constant
Frame rate : 23.976 (24000/1001) FPS
Color space : YUV
Chroma subsampling : 4:2:0
Bit depth : 8 bits
Scan type : Progressive
Bits/(Pixel*Frame) : 0.183
Stream size : 6.37 GiB (82%)
Writing library : core 129 r2245 bc13772
Encoding settings : cabac=1 / ref=4 / deblock=1:0:0 / analyse=0x3:0x113 / me=umh / subme=8 / psy=1 / psy_rd=1.00:0.00 / mixed_ref=1 / me_range=16 / chroma_me=1 / trellis=1 / 8x8dct=1 / cqm=0 / deadzone=21,11 / fast_pskip=1 / chroma_qp_offset=-2 / threads=12 / lookahead_threads=2 / sliced_threads=0 / nr=0 / decimate=1 / interlaced=0 / bluray_compat=0 / constrained_intra=0 / bframes=3 / b_pyramid=2 / b_adapt=2 / b_bias=0 / direct=3 / weightb=1 / open_gop=0 / weightp=2 / keyint=240 / keyint_min=24 / scenecut=40 / intra_refresh=0 / rc_lookahead=50 / rc=2pass / mbtree=1 / bitrate=8742 / ratetol=1.0 / qcomp=0.60 / qpmin=0 / qpmax=69 / qpstep=4 / cplxblur=20.0 / qblur=0.5 / ip_ratio=1.40 / aq=1:1.00
Language : English
Default : Yes
Forced : No

Audio #1
ID : 2
Format : AC-3
Format/Info : Audio Coding 3
Commercial name : Dolby Digital
Codec ID : A_AC3
Duration : 1 h 46 min
Bit rate mode : Constant
Bit rate : 192 kb/s
Channel(s) : 2 channels
Channel layout : L R
Sampling rate : 48.0 kHz
Frame rate : 31.250 FPS (1536 SPF)
Bit depth : 16 bits
Compression mode : Lossy
Stream size : 147 MiB (2%)
Title : UKR (1+1)
Language : Ukrainian
Service kind : Complete Main
Default : Yes
Forced : Yes

Audio #2
ID : 3
Format :
Format/Info : Digital Theater Systems
Codec ID : A_DTS
Duration : 1 h 46 min
Bit rate mode : Constant
Bit rate : 1 509 kb/s
Channel(s) : 6 channels
Channel layout : C L R Ls Rs LFE
Sampling rate : 48.0 kHz
Frame rate : 93.750 FPS (512 SPF)
Bit depth : 24 bits
Compression mode : Lossy
Stream size : 1.13 GiB (14%)
Title : ENG
Language : English
Default : No
Forced : No

Text
ID : 4
Format : UTF-8
Codec ID : S_TEXT/UTF8
Codec ID/Info : UTF-8 Plain Text
Language : English
Default : No
Forced : No

Menu
00:00:00.000 : en:00:00:00.000
00:08:01.481 : en:00:08:01.481
00:13:56.836 : en:00:13:56.836
00:21:48.307 : en:00:21:48.307
00:29:08.747 : en:00:29:08.747
00:37:09.227 : en:00:37:09.227
00:43:41.619 : en:00:43:41.619
00:50:39.036 : en:00:50:39.036
00:57:36.453 : en:00:57:36.453
01:05:18.915 : en:01:05:18.915
01:12:11.327 : en:01:12:11.327
01:19:56.792 : en:01:19:56.792
01:24:49.501 : en:01:24:49.501
01:31:03.291 : en:01:31:03.291
01:38:33.533 : en:01:38:33.533
Скріншоти










За український звук подяка п.: olgaya, JACKUS
Особиста подяка пану denixx за надану матеріальну допомогу на підтримку цього і майбутніх релізів.
Джерело:


Срібний реліз (на рейтинг впливає 50% завантаженого)
 Трекер:    Зареєстрований   

Завантажити / скачати фільм українською



відео для новачків



 Зареєстрований:   2019-03-10 11:14
 Розмір:   7.79 GB 
 Оцінка фільму:   10/10 (Голосів: 2)
   
Інші релізи
   Правда та наслідки / Truth or Consequences, N.M. (1997) JACKUS  3 / 0   1.16 GB   2010-09-25 01:24 
11FrYkT 
Модератор відео


З нами з: 20.02.11
Востаннє: 08.12.19
Повідомлень: 6382

2019-03-10 22:45  
Anonymous написано:

Info
xxx

Anonymous 







2019-03-11 07:00  
11FrYkT
виправив

Ваш часовий пояс: GMT + 2 Години

Нова тема   Відповісти