Синдбад: Легенда семи морів / Sinbad: Legend of the Seven Seas (2003) 1080p 2xUkr/Eng | Sub Eng

Нові коментарі

Нова тема   Відповісти
Автор Повідомлення
Anonymous 







2019-03-10 08:16  
Синдбад: Легенда семи морів / Sinbad: Legend of the Seven Seas (2003) 1080p 2xUkr/Eng | Sub Eng

Синдбад: Легенда семи морів / Sinbad: Legend of the Seven Seas (2003) 1080p 2xUkr/Eng | Sub Eng


Жанр: анімація, пригодницький, фентезі
Країна: США



Кінокомпанія: DreamWorks Pictures
Режисер: Патрік Гілмор / Patrick Gilmore, Тім Джонсон / Tim Johnson
Актори: Бред Пітт / Brad Pitt, Кетрін Зета-Джонс / Catherine Zeta-Jones, Мішель Пфайффер / Michelle Pfeiffer, Джозеф Файнс / Joseph Fiennes, Денніс Хейсберт / Dennis Haysbert, Тімоті Вест / Timothy West, Адріано Джанніні / Adriano Giannini та інші

Сюжет:
Мультфільм розповідає про одну з численних пригод відомого аравійського моряка Синдбада. Пригода починається тоді, коли Еріс, богиня Хаосу, краде Книгу Миру, підставивши тим самим Синдбада і зробивши з нього злочинця. Маючи намір довести свою невинність, а також врятувати життя свого кращого друга Протея, моряк ві вирушає в царство Еріс, що кишить жахливими монстрами, такими, як гігантські скорпіони, змії і сорокафутові птахи, зроблені з льоду і снігу. Навіть якщо Синдбад зможе знищити всіх цих чудовиськ, йому також доведеться мати справу з магією Еріс, що володіє ефектом Яблука Розбрату, яке має здатність перетворити друзів на ворогів, коли воно кинуто посеред них. Як завершиться ця подорож?


Тривалість: 01:25:43
Якість: 1080p
Відео:
кодек:
розмір кадру: 1920х1040
бітрейт: 7614 кб/с

Аудіо # 1:
мова: українська
переклад: багатоголосий закадровий
кодек: 2.0
бітрейт: 192 кб/с

Аудіо # 2:
мова: українська
переклад: багатоголосий закадровий
кодек: 2.0
бітрейт: 192 кб/с

Аудіо # 3:
мова: англійська
переклад: оригінал
кодек: 5.1
бітрейт: 1509 кб/с

Субтитри #1-2:
мова: англійська
тип: програмні (м'які)
формат: *.srt
Info
General
Unique ID : 225090848805441229465418194697679783343 (0xA956EBABEE15D059B7093397B4EBC5AF)
Complete name : H:\Toloka\2019\Sindbad. Legend of the Seven Seas (2003) 1080p.
Format :
Format version : Version 4
File size : 5.69 GiB
Duration : 1 h 25 min
Overall bit rate : 9 508 kb/s
Encoded date : UTC 2019-03-10 05:08:09
Writing application : v6.1.0 ('Old Devil') built on Mar 4 2013 09:10:42
Writing library : libebml v1.3.0 + v1.4.0

Video
ID : 1
Format : AVC
Format/Info : Advanced Video Codec
Format profile : [email protected]
Format settings : CABAC / 4 Ref Frames
Format settings, CABAC : Yes
Format settings, RefFrames : 4 frames
Codec ID : V_MPEG4/ISO/AVC
Duration : 1 h 25 min
Bit rate : 7 614 kb/s
Width : 1 920 pixels
Height : 1 040 pixels
Display aspect ratio : 1.85:1
Frame rate mode : Constant
Frame rate : 23.976 (24000/1001) FPS
Color space : YUV
Chroma subsampling : 4:2:0
Bit depth : 8 bits
Scan type : Progressive
Bits/(Pixel*Frame) : 0.159
Stream size : 4.45 GiB (78%)
Writing library : core 157 r2935 545de2f
Encoding settings : cabac=1 / ref=4 / deblock=1:-3:-3 / analyse=0x3:0x113 / me=umh / subme=8 / psy=1 / psy_rd=0.95:0.00 / mixed_ref=1 / me_range=32 / chroma_me=1 / trellis=2 / 8x8dct=1 / cqm=0 / deadzone=21,11 / fast_pskip=1 / chroma_qp_offset=-2 / threads=32 / lookahead_threads=5 / sliced_threads=0 / nr=0 / decimate=1 / interlaced=0 / bluray_compat=0 / constrained_intra=0 / bframes=3 / b_pyramid=2 / b_adapt=2 / b_bias=0 / direct=3 / weightb=1 / open_gop=0 / weightp=2 / keyint=240 / keyint_min=24 / scenecut=40 / intra_refresh=0 / rc_lookahead=50 / rc=2pass / mbtree=1 / bitrate=7614 / ratetol=1.0 / qcomp=0.60 / qpmin=0 / qpmax=69 / qpstep=4 / cplxblur=20.0 / qblur=0.5 / ip_ratio=1.40 / aq=3:0.70
Default : Yes
Forced : No
Statistics Tags Issue : no_variable_data 1970-01-01 00:00:00 / v6.1.0 ('Old Devil') built on Mar 4 2013 09:10:42 2019-03-10 05:08:09
FromStats_BitRate : 7612561
FromStats_Duration : 01:25:42.888000000
FromStats_FrameCount : 123306
FromStats_StreamSize : 4893818671

Audio #1
ID : 2
Format : AC-3
Format/Info : Audio Coding 3
Commercial name : Dolby Digital
Codec ID : A_AC3
Duration : 1 h 25 min
Bit rate mode : Constant
Bit rate : 192 kb/s
Channel(s) : 2 channels
Channel layout : L R
Sampling rate : 48.0 kHz
Frame rate : 31.250 FPS (1536 SPF)
Bit depth : 16 bits
Compression mode : Lossy
Stream size : 118 MiB (2%)
Title : UKR (Новий)
Language : Ukrainian
Service kind : Complete Main
Default : Yes
Forced : Yes

Audio #2
ID : 3
Format : AC-3
Format/Info : Audio Coding 3
Commercial name : Dolby Digital
Codec ID : A_AC3
Duration : 1 h 25 min
Bit rate mode : Constant
Bit rate : 192 kb/s
Channel(s) : 2 channels
Channel layout : L R
Sampling rate : 48.0 kHz
Frame rate : 31.250 FPS (1536 SPF)
Bit depth : 16 bits
Compression mode : Lossy
Stream size : 118 MiB (2%)
Title : UKR (K1)
Language : Ukrainian
Service kind : Complete Main
Default : No
Forced : No

Audio #3
ID : 4
Format :
Format/Info : Digital Theater Systems
Codec ID : A_DTS
Duration : 1 h 25 min
Bit rate mode : Constant
Bit rate : 1 509 kb/s
Channel(s) : 6 channels
Channel layout : C L R Ls Rs LFE
Sampling rate : 48.0 kHz
Frame rate : 93.750 FPS (512 SPF)
Bit depth : 24 bits
Compression mode : Lossy
Stream size : 925 MiB (16%)
Language : English
Default : No
Forced : No
Statistics Tags Issue : no_variable_data 1970-01-01 00:00:00 / v6.1.0 ('Old Devil') built on Mar 4 2013 09:10:42 2019-03-10 05:08:09
FromStats_BitRate : 1508999
FromStats_Duration : 01:25:42.891000000
FromStats_FrameCount : 482146
FromStats_StreamSize : 970077752

Text #1
ID : 5
Format : UTF-8
Codec ID : S_TEXT/UTF8
Codec ID/Info : UTF-8 Plain Text
Language : English
Default : No
Forced : No
Statistics Tags Issue : no_variable_data 1970-01-01 00:00:00 / v6.1.0 ('Old Devil') built on Mar 4 2013 09:10:42 2019-03-10 05:08:09
FromStats_BitRate : 46
FromStats_Duration : 01:17:02.743000000
FromStats_FrameCount : 1033
FromStats_StreamSize : 26654

Text #2
ID : 6
Format : UTF-8
Codec ID : S_TEXT/UTF8
Codec ID/Info : UTF-8 Plain Text
Title : SDH
Language : English
Default : No
Forced : No
Statistics Tags Issue : no_variable_data 1970-01-01 00:00:00 / v6.1.0 ('Old Devil') built on Mar 4 2013 09:10:42 2019-03-10 05:08:09
FromStats_BitRate : 57
FromStats_Duration : 01:17:24.431000000
FromStats_FrameCount : 1398
FromStats_StreamSize : 33468

Menu
00:00:00.000 : en:Chapter 01
00:04:14.713 : en:Chapter 02
00:09:17.974 : en:Chapter 03
00:13:11.457 : en:Chapter 04
00:18:30.776 : en:Chapter 05
00:23:36.957 : en:Chapter 06
00:29:18.006 : en:Chapter 07
00:34:38.868 : en:Chapter 08
00:38:23.301 : en:Chapter 09
00:42:50.151 : en:Chapter 10
00:45:52.166 : en:Chapter 11
00:49:04.066 : en:Chapter 12
00:53:04.598 : en:Chapter 13
01:00:56.486 : en:Chapter 14
01:06:36.743 : en:Chapter 15
01:10:40.570 : en:Chapter 16
01:15:09.672 : en:Chapter 17
01:18:18.694 : en:Chapter 18
Скріншоти







За українські доріжки подяка п.: lenina4040, РОМЕО, tarasyk98
За постер подяка п. Пан_Олександр
Особиста подяка пану denixx за надану матеріальну допомогу на підтримку цього і майбутніх релізів.
Джерело:


Срібний реліз (на рейтинг впливає 50% завантаженого)
 Трекер:    Зареєстрований   

Завантажити / скачати мультфільм українською



відео для новачків



 Зареєстрований:   2019-03-10 08:16
 Розмір:   5.69 GB 
 Оцінка мультфільму:   9.9/10 (Голосів: 13)
   
AMOROSO 
Частий відвідувач


З нами з: 01.01.12
Востаннє: 31.03.20
Повідомлень: 48

2019-03-24 10:50  
Дітям було цікаво, хороший мультик
igor1zz 
Новенький


З нами з: 29.11.14
Востаннє: 23.01.20
Повідомлень: 18

2019-05-05 13:52  
Дуже дякую!
portsmuth 
Свій


З нами з: 10.06.14
Востаннє: 25.03.20
Повідомлень: 77

2019-07-18 13:04  
В мультику нічого повчального, хоча сюжет - екшн.
Ваш часовий пояс: GMT + 2 Години

Нова тема   Відповісти