Перша сотня (2018) 1080p

Нові коментарі

Нова тема   Відповісти
Автор Повідомлення
sergiyko.5 
VIP


З нами з: 25.02.16
Востаннє: 21.10.20
Повідомлень: 3586

2019-03-09 18:56  
Перша сотня (2018) 1080p

Перша сотня (2018) 1080p

Жанр: документальний
Країна: Україна
Режисер-постановник: Шашкова Юлія, Ярослав Пілунський, Юрій Грузінов
Композитор: Микита Моісеєв
Продюсер: Анна Капустіна
Режисер монтажу: Юрій Грузінов

Сюжет:
Українська революція (2013-2014) й війна з Росією на Донбасі зблизька. Емоційна кінооптика через історію Першої майданівської сотні, яка перемогла внутрішнього ворога й висунулася на передову боротьби з ворогом зовнішнім. Занурення до епіцентру гарячих подій, відвертий мистецький та громадянський погляд на людські стосунки на тлі бурхливих соціальних потрясінь. Перед глядачем розгортаються людські історії, зіткнення харизматичних характерів, виклики й рішення на межі життя і смерті, пошук взаємодії, перші кроки до формування громадянського суспільства. Усе це підсумовується осмисленням пройденого шляху й оптимістичним поглядом в українське майбутнє. Фільм зітканий як людська пам’ять, у якій минуле наповнене подіями особистих переживань. Разом із тим, фільм прагне осмислити новітній український час та події в проекції на історію людства.




Тривалість: 01:40:48
Якість:

Відео: кодек: розмір кадру: 1920 х 1080 бітрейт: 3200 кб/с
Аудіо: мова: українська переклад: оригінал кодек: 2.0 бітрейт: 128 кб/с
Субтитри:мова: українська тип: вбудовані (жорсткі)
Про файл:
General
Complete name : D:\Torrents\FILMS\Перша сотня.2018.1080p..mp4
Format : MPEG-4
Format profile : Base Media
Codec ID : isom (isom)
File size : 2.37 GiB
Duration : 1 h 40 min
Overall bit rate mode : Variable
Overall bit rate : 3 364 kb/s
Encoded date : UTC 2019-02-21 14:36:55
Tagged date : UTC 2019-02-21 14:36:55

Video
ID : 1
Format : AVC
Format/Info : Advanced Video Codec
Format profile : [email protected]
Format settings : CABAC / 4 Ref Frames
Format settings, CABAC : Yes
Format settings, ReFrames : 4 frames
Codec ID : avc1
Codec ID/Info : Advanced Video Coding
Duration : 1 h 40 min
Bit rate : 3 231 kb/s
Maximum bit rate : 9 478 kb/s
Width : 1 920 pixels
Height : 1 080 pixels
Display aspect ratio : 16:9
Frame rate mode : Constant
Frame rate : 25.000 FPS
Color space : YUV
Chroma subsampling : 4:2:0
Bit depth : 8 bits
Scan type : Progressive
Bits/(Pixel*Frame) : 0.062
Stream size : 2.27 GiB (96%)
Writing library : core 142 r2389 956c8d8
Encoding settings : cabac=1 / ref=1 / deblock=1:0:0 / analyse=0x1:0x1 / me=dia / subme=1 / psy=1 / psy_rd=1.00:0.00 / mixed_ref=0 / me_range=16 / chroma_me=1 / trellis=0 / 8x8dct=0 / cqm=0 / deadzone=21,11 / fast_pskip=1 / chroma_qp_offset=0 / threads=12 / lookahead_threads=2 / sliced_threads=0 / nr=0 / decimate=1 / interlaced=0 / bluray_compat=0 / constrained_intra=0 / bframes=3 / b_pyramid=2 / b_adapt=1 / b_bias=0 / direct=1 / weightb=1 / open_gop=0 / weightp=1 / keyint=24 / keyint_min=2 / scenecut=40 / intra_refresh=0 / rc=crf / mbtree=0 / crf=27.0 / qcomp=0.60 / qpmin=0 / qpmax=69 / qpstep=4 / ip_ratio=1.40 / pb_ratio=1.30 / aq=1:1.00
Tagged date : UTC 2019-02-21 14:37:21
Codec configuration box : avcC

Audio
ID : 2
Format : LC
Format/Info : Advanced Audio Codec Low Complexity
Codec ID : mp4a-40-2
Duration : 1 h 40 min
Source duration : 1 h 40 min
Bit rate mode : Variable
Bit rate : 129 kb/s
Maximum bit rate : 144 kb/s
Channel(s) : 2 channels
Channel layout : L R
Sampling rate : 44.1 kHz
Frame rate : 43.066 FPS (1024 SPF)
Compression mode : Lossy
Stream size : 92.7 MiB (4%)
Source stream size : 92.7 MiB (4%)
Default : Yes
Alternate group : 1
Tagged date : UTC 2019-02-21 14:37:21
Скріншоти:



Золотий реліз (завантажене не впливає на рейтинг)
 Трекер:    Зареєстрований   

Завантажити / скачати фільм українською



відео для новачків



 Зареєстрований:   2019-03-09 18:56
 Розмір:   2.37 GB 
 Оцінка фільму:   9.7/10 (Голосів: 31)
   
perepadia 
VIP


З нами з: 27.10.08
Востаннє: 19.10.20
Повідомлень: 305

2019-03-09 23:30  
Дякую!
igor911 
Модератор відео


З нами з: 18.01.08
Востаннє: 21.10.20
Повідомлень: 15033

2019-03-09 23:57  
sergiyko.5 написано:
Субтитри:мова: українська тип: вбудовані (жорсткі)

треба додати хоч один скріншот зі зразком субтитрів
sergiyko.5 написано:
формат: *.srt

це треба прибрати

Tranceliker 
Свій


З нами з: 30.03.10
Востаннє: 20.10.20
Повідомлень: 65

2019-03-10 10:18  
"Емоційна кінооптика через історію Першої майданівської сотні, яка перемогла внутрішнього ворога й висунулася на передову боротьби з ворогом зовнішнім."
Оце так лайно я щойно прочитав...

bot 
робот


З нами з: 30.09.07
Востаннє: 26.05.05
Повідомлень: 25908

2019-03-28 17:42  
VaultDweller 
VIP


З нами з: 03.06.14
Востаннє: 19.10.20
Повідомлень: 383

2019-04-14 02:23  
І все москалики знімають нам фільми. Жодного українського прізвища навіть не бачу.
hetzendorf 
Попереджень: 2
Попереджень: 2 


З нами з: 23.07.15
Востаннє: 21.10.20
Повідомлень: 2892

2019-10-07 23:49  
havryk 
VIP


З нами з: 29.06.10
Востаннє: 20.10.20
Повідомлень: 843

2020-02-20 15:42  
Фільм доступний для перегляду на каналі Вabylon'13 - https://www.youtube.com/watch?v=3DZOuDmIDNU
piznajko 
Відео Гуртом - субтитрування
Відео Гуртом - субтитрування


З нами з: 24.02.09
Востаннє: 16.09.20
Повідомлень: 2197

2020-03-27 23:50  
havryk написано:
Фільм доступний для перегляду на каналі Вabylon'13 - https://www.youtube.com/watch?v=3DZOuDmIDNU


https://mbr.com.ua/uk/news/ukraine/1700-dokumentalnyi-film-persha-sotnya-vylozhili-v-internet
Документальний фільм «Перша сотня» виклали в інтернет

Переносьте вже з закритого розділу, нема сенсу вже його там тримать - будь-хто може подивиться на Youtube

bot 
робот


З нами з: 30.09.07
Востаннє: 26.05.05
Повідомлень: 25908

2020-03-28 00:27  
Ваш часовий пояс: GMT + 2 Години

Нова тема   Відповісти