Книга друзів Нацуме (5 cезон, серії 1-5 з 11) / Natsume Yuujinchou Go / Natsume's Book of Friends Five (2016) 720р Jap | Sub Ukr

Нові коментарі

Нова тема   Відповісти
Автор Повідомлення
Amanogawa 
VIP


З нами з: 27.09.17
Востаннє: 09.04.20
Повідомлень: 652

2019-03-09 14:18  
Книга друзів Нацуме (5 cезон, серії 1-5 з 11) / Natsume Yuujinchou Go / Natsume's Book of Friends Five (2016) 720р Jap | Sub Ukr

Книга друзів Нацуме (5 cезон, серії 1-5 з 11) / Natsume Yuujinchou Go / Natsume's Book of Friends Five (2016) 720р Jap | Sub Ukr


Жанр: повсякденність, містика, фентезі, драма, комедія, шьоджьо
Країна: Японія


8.63 (37 291 голос)

Кінокомпанія: Шюка
Режисер: Оморі Такахіро
Актори озвучення: Камія Хіроші, Іное Казухіко, Кобаяші Санае, Ішіда Акіра, Сувабе Джуньічі, Хорі Казума, Іто Мікі

Сюжет:
Продовження історії про Такаші Нацуме, хлопця, що здатен бачити йокаїв, який успадкував від своєї бабусі нотатник з іменами йокаїв, що зветься "Книга друзів".
Нацуме продовжить повертати імена йокаям, а також допомагати їм у найрізноманітніших справах. Чим продовжить дратувати Нянко-сенсея, який непокоїться за нього.
Без небезпек сезон також не обійдеться. Нацуме доведеться постаратися, аби захистити тих, хто для нього важливий.


Тривалість серії: 00:23:50
Перелік серій
1. Незмінна форма
2. Пустотливий дощ
3. Лист від екзорциста
4. Тінь пов'язаних ланцюгів
5. Це не має бути пов'язано
6. --- невдовзі буде ---
7. --- невдовзі буде ---
8. --- невдовзі буде ---
9. --- невдовзі буде ---
10. --- невдовзі буде ---
11. --- невдовзі буде ---
Якість:
Відео:
кодек:
розмір кадру: 1280x720
бітрейт: ~1 800 кбіт/с

Аудіо:
мова: японська
переклад: оригінал
кодек: 2.0
бітрейт: 128 кбіт/с

Субтитри:
мова: українська (повні)
тип: програмні (м'які)
формат: *.
Info
General
Unique ID : 279330298961719082440928222390766338745 (0xD2250F07E9DF2414BDFEFF8E4C5102B9)
Complete name : [Mitsuruki] Natsume Yuujinchou Go - 01 [720p].
Format :
Format version : Version 4 / Version 2
File size : 324 MiB
Duration : 23 min 50 s
Overall bit rate : 1 897 kb/s
Movie name : [Mitsuruki] Natsume Yuujinchou Go - 01 [720p]
Encoded date : UTC 2019-03-09 03:09:13
Writing application : v31.0.0 ('Dolores In A Shoestand') 64-bit
Writing library : libebml v1.3.6 + v1.4.9
Attachments : OpenSans-Semibold.ttf

Video
ID : 1
Format : AVC
Format/Info : Advanced Video Codec
Format profile : [email protected]
Format settings : CABAC / 6 Ref Frames
Format settings, CABAC : Yes
Format settings, ReFrames : 6 frames
Codec ID : V_MPEG4/ISO/AVC
Duration : 23 min 50 s
Bit rate : 1 776 kb/s
Width : 1 280 pixels
Height : 720 pixels
Display aspect ratio : 16:9
Frame rate mode : Variable
Frame rate : 23.976 (23976/1000) FPS
Color space : YUV
Chroma subsampling : 4:2:0
Bit depth : 8 bits
Scan type : Progressive
Bits/(Pixel*Frame) : 0.080
Stream size : 301 MiB (93%)
Writing library : core 120 r2120 0c7dab9
Encoding settings : cabac=1 / ref=6 / deblock=1:1:1 / analyse=0x3:0x113 / me=umh / subme=8 / psy=1 / psy_rd=0.40:0.00 / mixed_ref=1 / me_range=16 / chroma_me=1 / trellis=1 / 8x8dct=1 / cqm=0 / deadzone=21,11 / fast_pskip=1 / chroma_qp_offset=-2 / threads=4 / sliced_threads=0 / nr=0 / decimate=1 / interlaced=0 / bluray_compat=0 / constrained_intra=0 / bframes=3 / b_pyramid=2 / b_adapt=2 / b_bias=0 / direct=3 / weightb=1 / open_gop=0 / weightp=2 / keyint=250 / keyint_min=23 / scenecut=40 / intra_refresh=0 / rc_lookahead=50 / rc=2pass / mbtree=1 / bitrate=1776 / ratetol=1.0 / qcomp=0.60 / qpmin=0 / qpmax=69 / qpstep=4 / cplxblur=20.0 / qblur=0.5 / vbv_maxrate=3552 / vbv_bufsize=8880 / nal_hrd=none / ip_ratio=1.40 / aq=1:0.60
Default : Yes
Forced : No

Audio
ID : 2
Format :
Format/Info : Advanced Audio Codec
Format profile : LC
Codec ID : A_AAC-2
Duration : 23 min 50 s
Bit rate : 128 kb/s
Channel(s) : 2 channels
Channel positions : Front: L R
Sampling rate : 44.1 kHz
Frame rate : 43.066 FPS (1024 SPF)
Compression mode : Lossy
Stream size : 21.8 MiB (7%)
Language : Japanese
Default : Yes
Forced : No

Text
ID : 3
Format :
Codec ID : S_TEXT/
Codec ID/Info : Advanced Sub Station Alpha
Duration : 23 min 42 s
Bit rate : 200 b/s
Count of elements : 468
Compression mode : Lossless
Stream size : 34.9 KiB (0%)
Title : Mitsuruki
Language : Ukrainian
Default : Yes
Forced : No
Скріншоти
Джерело: HorribleSubs і Переклад Mitsuruki
Переклад: KseniaLand, Bellow Heaty, Nxxygen, Одєялов, Dotrox, india
Редактура: Dotrox
Координація: Одєялов, Dotrox
Особиста оцінка: 9 - добре й миле аніме про дружбу, вірність, самопожертву.


Золотий реліз (завантажене не впливає на рейтинг)
 Трекер:    Зареєстрований   

Завантажити / скачати аніме українською



відео для новачків



 Зареєстрований:   2019-03-22 18:28
 Розмір:   1.58 GB 
 Оцінка аніме:   10/10 (Голосів: 4)
   
Amanogawa 
VIP


З нами з: 27.09.17
Востаннє: 09.04.20
Повідомлень: 652

2019-03-22 18:34  
Додано п'яту серію.
Торрент оновлено.

Ваш часовий пояс: GMT + 2 Години

Нова тема   Відповісти