Смертні машини / Mortal Engines (2018) Remux 1080p Ukr/Eng | Sub Eng

Нові коментарі

Нова тема   Відповісти
Автор Повідомлення
staf777 
Відео Гуртом - підтримка та поширення
Відео Гуртом - підтримка та поширення


З нами з: 16.11.16
Востаннє: 15.12.19
Повідомлень: 3085

2019-03-08 20:56  
Смертні машини / Mortal Engines (2018) Remux 1080p Ukr/Eng | Sub Eng


Альтернативні постери:





Жанр: фантастика, фентезі, екшн, пригодницький, трилер
Країна: США, Нова Зеландія



Кінокомпанія: Universal, Media Rights Capital, Scholastic Productions, Silvertongue Films
Режисер: Крістіан Ріверс, Пітер Джексон
Актори: Гера Хілмар, Г'юго Вівінг, Джихе, Роберт Шіен, Стівен Ленг, Лейла Джордж, Френкі Адамс, Карен Пісторіус, Ендрю Лііз, Колін Семон

Сюжет:
Пройшли тисячоліття після того, як світ настиг апокаліпсис. Людство адаптувалося і тепер живе за новими правилами. Гігантські рухомі мегаполіси розсікають пустищі і поглинають маленькі міста заради ресурсів. Том Нетсуорті з нижнього рівня великого Лондона опиняється у смертельній небезпеці, коли на його шляху з'являється бунтарка Естер Шоу, що ховається від закону. Вони не повинні були зустрітися, але їм судилося змінити майбутнє.


Тривалість: 02:08:21
Якість: Remux 1080p

Відео:
кодек:
розмір кадру: 1920x1080
бітрейт: 29,9 Mб/с

Аудіо # 1:
мова: українська
переклад: професійний дубльований | студія LeDoyen
кодек: 2.0 [стерео]
бітрейт: 192 кб/с

Аудіо # 2:
мова: англійська
переклад: оригінал
кодек: TrueHD 7.1
бітрейт: 4519 кб/с

Субтитри # 1: [Forced]
мова: російська
тип: програмні (м'які)
формат: *.srt

Субтитри # 2:
мова: англійська
тип: програмні (м'які)
формат: *.srt
Info
General
Unique ID : 265619316768079495114589475626640066993 (0xC7D46B6AB7B8B1260AAD04814289C9B1)
Complete name : S:\» HD українською » Фільми в HD\Фентезі\Mortal Engines (2018) Remux 1080p [UKR_ENG] [Hurtom].
Format :
Format version : Version 4
File size : 31.1 GiB
Duration : 2 h 8 min
Overall bit rate mode : Variable
Overall bit rate : 34.7 Mb/s
Movie name : Mortal Engines (2018) Remux 1080p [UKR_ENG] [Hurtom]
Encoded date : UTC 2019-03-08 20:07:04
Writing application : v30.1.0 ('Forever And More') 64-bit
Writing library : libebml v1.3.6 + v1.4.9
Cover : Yes
Attachments : cover.jpg

Video
ID : 1
Format : AVC
Format/Info : Advanced Video Codec
Format profile : [email protected]
Format settings : CABAC / 2 Ref Frames
Format settings, CABAC : Yes
Format settings, ReFrames : 2 frames
Codec ID : V_MPEG4/ISO/AVC
Duration : 2 h 8 min
Bit rate mode : Variable
Bit rate : 29.9 Mb/s
Width : 1 920 pixels
Height : 1 080 pixels
Display aspect ratio : 16:9
Frame rate mode : Constant
Frame rate : 23.976 (24000/1001) FPS
Color space : YUV
Chroma subsampling : 4:2:0
Bit depth : 8 bits
Scan type : Progressive
Bits/(Pixel*Frame) : 0.601
Stream size : 26.8 GiB (86%)
Language : English
Default : Yes
Forced : No

Audio #1
ID : 2
Format : AC-3
Format/Info : Audio Coding 3
Commercial name : Dolby Digital
Codec ID : A_AC3
Duration : 2 h 8 min
Bit rate mode : Constant
Bit rate : 192 kb/s
Channel(s) : 2 channels
Channel layout : L R
Sampling rate : 48.0 kHz
Frame rate : 31.250 FPS (1536 SPF)
Bit depth : 16 bits
Compression mode : Lossy
Stream size : 176 MiB (1%)
Language : Ukrainian
Service kind : Complete Main
Default : Yes
Forced : Yes

Audio #2
ID : 3
Format : MLP FBA 16-ch
Format/Info : Meridian Lossless Packing FBA with 16-channel presentation
Commercial name : Dolby TrueHD with Dolby Atmos
Codec ID : A_TRUEHD
Duration : 2 h 8 min
Bit rate mode : Variable
Bit rate : 4 519 kb/s
Maximum bit rate : 7 425 kb/s
Channel(s) : 8 channels
Channel layout : L R C LFE Ls Rs Lb Rb
Sampling rate : 48.0 kHz
Frame rate : 1 200.000 FPS (40 SPF)
Compression mode : Lossless
Stream size : 4.05 GiB (13%)
Title : Original
Language : English
Default : No
Forced : No
Number of dynamic objects : 11
Bed channel count : 1 channel
Bed channel configuration : LFE

Text #1
ID : 4
Format : UTF-8
Codec ID : S_TEXT/UTF8
Codec ID/Info : UTF-8 Plain Text
Duration : 1 h 43 min
Bit rate : 1 b/s
Count of elements : 19
Stream size : 852 Bytes (0%)
Language : Ukrainian
Default : Yes
Forced : Yes

Text #2
ID : 5
Format : UTF-8
Codec ID : S_TEXT/UTF8
Codec ID/Info : UTF-8 Plain Text
Duration : 1 h 57 min
Bit rate : 74 b/s
Count of elements : 1332
Stream size : 63.8 KiB (0%)
Language : English
Default : No
Forced : No

Menu
00:00:00.000 : :绗?01 绔?
00:09:24.397 : :绗?02 绔?
00:16:13.306 : :绗?03 绔?
00:24:20.626 : :绗?04 绔?
00:31:24.591 : :绗?05 绔?
00:35:53.068 : :绗?06 绔?
00:41:27.819 : :绗?07 绔?
00:44:53.816 : :绗?08 绔?
00:50:16.805 : :绗?09 绔?
00:54:21.175 : :绗?10 绔?
01:00:51.398 : :绗?11 绔?
01:07:12.070 : :绗?12 绔?
01:11:12.852 : :绗?13 绔?
01:17:37.736 : :绗?14 绔?
01:25:25.620 : :绗?15 绔?
01:33:30.396 : :绗?16 绔?
01:39:28.546 : :绗?17 绔?
01:47:58.263 : :绗?18 绔?
01:52:11.558 : :绗?19 绔?
01:58:33.523 : :绗?20 绔?




Підтримати купівлю інших фільмів можна тут.



Подяка пану AngryBirdsUA за доріжку.
Джерело: &
Особиста оцінка: 10 - без зайвих вагань рекомендую всім!


Золотий реліз (завантажене не впливає на рейтинг)
 Трекер:    Зареєстрований   

Завантажити / скачати фільм українською



відео для новачків



 Зареєстрований:   2019-03-08 23:01
 Розмір:   31.09 GB 
 Оцінка фільму:   8.8/10 (Голосів: 28)
   
bot 
робот


З нами з: 30.09.07
Востаннє: 26.05.05
Повідомлень: 22673

2019-03-08 23:01  
Тему перенесено з Анонси релізів до форуму Фільми в HD


staf777

taksist 
VIP


З нами з: 10.12.12
Востаннє: 16.12.19
Повідомлень: 285

2019-03-09 02:44  
заморилися, бідненькі і стали смертними...
sandman 
VIP


З нами з: 12.08.12
Востаннє: 14.12.19
Повідомлень: 291

2019-03-09 10:55  
staf777 - дуже дякую, дотрмали слова! Дочекався, забраю Happy
famous37 
Відео Гуртом - фільмокрай
Відео Гуртом - фільмокрай


З нами з: 16.11.08
Востаннє: 15.12.19
Повідомлень: 960

2019-03-09 13:18  
Дякую за якість відео. Ще би звук 5.1... )
Oleksa9 
VIP


З нами з: 17.05.12
Востаннє: 16.12.19
Повідомлень: 386

2019-05-04 09:46  
Місцями виникають ворожі субтитри
igor911 
Модератор відео


З нами з: 18.01.08
Востаннє: 16.12.19
Повідомлень: 13736

2019-05-04 09:53  
Oleksa9 написано:
Місцями виникають ворожі субтитри

релізер переплутав російські та українські форсовані субтитри, і залишив російські

Додано через 2 хвилини 48 секунд:

виправив опис

ВАВУНЯ 
VIP


З нами з: 30.06.15
Востаннє: 11.12.19
Повідомлень: 267

2019-05-04 11:51  
Коли вже хороший звук з'явиться?!
Дякую.

O_omarella! 
Свій


З нами з: 14.06.13
Востаннє: 01.12.19
Повідомлень: 139

2019-06-25 20:11  
мені сподобалось... не фонтан звісно, але потяг поруч проходить Wink (2)
mark1980 
Новенький


З нами з: 25.05.19
Востаннє: 15.12.19
Повідомлень: 1

2019-06-29 19:47  
мабуть, все таки ''смертельні машини ''
Ваш часовий пояс: GMT + 2 Години

Нова тема   Відповісти