Крах / Катастрофа / Wrecked (2010) 1080p Ukr/Eng | sub Ukr/Eng

Нові коментарі

Нова тема   Відповісти
Останній раз роздавалося VINRARUS (2019-11-17)
Автор Повідомлення
staf777 
Відео Гуртом - підтримка та поширення
Відео Гуртом - підтримка та поширення


З нами з: 16.11.16
Востаннє: 17.11.19
Повідомлень: 3034

2019-03-08 20:05  
Крах / Катастрофа / Wrecked (2010) 1080p Ukr/Eng | sub Ukr/Eng

Крах / Катастрофа / Wrecked (2010) 1080p Ukr/Eng | sub Ukr/Eng


Жанр: трилер, пригодницький, кримінальний, психологічний
Країна: США, Канада



Кінокомпанія: IFC Midnight Films
Режисер: Майкл Грінспен / Michael Greenspan
Актори: Едріан Броуді, Каролін Давернас та інші

Сюжет:
Герой прокинувся в розбитому автомобілі, посеред якихось джунглів. Машина розбита, у нього зламана нога, навколо декілька трупів, а в бардачку револьвер. Він нічого не пам'ятає - як він тут опинився і навіть як його звати. Навколо глухий ліс і нікого немає. Спочатку треба якось вижити, а потім спробувати дістатися до людей. А по дорозі ще й згадати що ж сталося. А оскільки в багажнику ще й сумка повна грошей, то ще врятуватися від людей, які намагатимуться вбити.


Тривалість: 01:29:51
Якість: 1080p
Відео:
кодек:
розмір кадру: 1920x800
бітрейт: 11200 кб/с

Аудіо # 1:
мова: українська
переклад: двоголосий закадровий
кодек: 2.0
бітрейт: 192 кб/с

Аудіо # 2:
мова: англійська
переклад: оригінал
кодек: 5.1
бітрейт: 1510 кб/с

Субтитри # 1:
мова: українська
тип: програмні (м'які)
формат: *.srt

Субтитри # 2:
мова: англійська
тип: програмні (м'які)
формат: *.srt
MI
General
Unique ID : 21146193993539315067640481383917760344 (0xFE89BDBC58501537FA8501ABEB72F58)
Complete name : S:\» HD українською » Фільми в HD\Трилер\Wrecked (2010) 1080p [UKR_ENG] [Hurtom].
Format :
Format version : Version 4
File size : 8.08 GiB
Duration : 1 h 29 min
Overall bit rate : 12.9 Mb/s
Movie name : Wrecked (2010) 1080p [UKR_ENG] [Hurtom]
Encoded date : UTC 2019-03-09 14:22:31
Writing application : v30.1.0 ('Forever And More') 64-bit
Writing library : libebml v1.3.6 + v1.4.9
Cover : Yes
Attachments : cover.jpg

Video
ID : 1
Format : AVC
Format/Info : Advanced Video Codec
Format profile : [email protected]
Format settings : CABAC / 8 Ref Frames
Format settings, CABAC : Yes
Format settings, ReFrames : 8 frames
Format settings, GOP : M=1, N=23
Codec ID : V_MPEG4/ISO/AVC
Duration : 1 h 29 min
Bit rate : 11.2 Mb/s
Width : 1 920 pixels
Height : 800 pixels
Display aspect ratio : 2.40:1
Frame rate mode : Constant
Frame rate : 23.976 (24000/1001) FPS
Color space : YUV
Chroma subsampling : 4:2:0
Bit depth : 8 bits
Scan type : Progressive
Bits/(Pixel*Frame) : 0.303
Stream size : 7.01 GiB (87%)
Writing library : core 80 r1376M 3feaec2
Encoding settings : cabac=1 / ref=9 / deblock=1:-3:-3 / analyse=0x3:0x113 / me=umh / subme=9 / psy=1 / psy_rd=1.0:0.0 / mixed_ref=1 / me_range=32 / chroma_me=1 / trellis=0 / 8x8dct=1 / cqm=0 / deadzone=21,11 / fast_pskip=1 / chroma_qp_offset=-2 / threads=12 / sliced_threads=0 / slices=4 / nr=0 / decimate=1 / mbaff=0 / constrained_intra=0 / bframes=6 / b_pyramid=1 / b_adapt=1 / b_bias=0 / direct=1 / wpredb=1 / wpredp=2 / keyint=24 / keyint_min=2 / scenecut=40 / rc_lookahead=24 / rc=2pass / mbtree=1 / bitrate=11172 / ratetol=1.0 / qcomp=0.60 / qpmin=10 / qpmax=51 / qpstep=4 / cplxblur=20.0 / qblur=0.5 / ip_ratio=1.40 / aq=1:1.00
Default : No
Forced : No

Audio #1
ID : 2
Format : AC-3
Format/Info : Audio Coding 3
Commercial name : Dolby Digital
Codec ID : A_AC3
Duration : 1 h 29 min
Bit rate mode : Constant
Bit rate : 192 kb/s
Channel(s) : 2 channels
Channel layout : L R
Sampling rate : 48.0 kHz
Frame rate : 31.250 FPS (1536 SPF)
Bit depth : 16 bits
Compression mode : Lossy
Stream size : 123 MiB (1%)
Title : UAVoice
Language : Ukrainian
Service kind : Complete Main
Default : Yes
Forced : Yes

Audio #2
ID : 3
Format :
Format/Info : Digital Theater Systems
Codec ID : A_DTS
Duration : 1 h 29 min
Bit rate mode : Constant
Bit rate : 1 510 kb/s
Channel(s) : 6 channels
Channel layout : C L R Ls Rs LFE
Sampling rate : 48.0 kHz
Frame rate : 93.750 FPS (512 SPF)
Bit depth : 16 bits
Compression mode : Lossy
Stream size : 970 MiB (12%)
Title : 5.1 ch 1509 kbps
Language : English
Default : No
Forced : No

Text #1
ID : 4
Format : UTF-8
Codec ID : S_TEXT/UTF8
Codec ID/Info : UTF-8 Plain Text
Duration : 1 h 23 min
Bit rate : 9 b/s
Count of elements : 194
Stream size : 5.88 KiB (0%)
Language : Ukrainian
Default : No
Forced : No

Text #2
ID : 5
Format : UTF-8
Codec ID : S_TEXT/UTF8
Codec ID/Info : UTF-8 Plain Text
Duration : 1 h 22 min
Bit rate : 5 b/s
Count of elements : 187
Stream size : 3.33 KiB (0%)
Language : English
Default : No
Forced : No

Menu
00:00:00.000 : en:00:00:00.000
00:05:00.000 : en:00:05:00.000
00:10:00.000 : en:00:10:00.000
00:15:00.000 : en:00:15:00.000
00:20:00.000 : en:00:20:00.000
00:25:00.000 : en:00:25:00.000
00:30:00.000 : en:00:30:00.000
00:35:00.000 : en:00:35:00.000
00:40:00.000 : en:00:40:00.000
00:45:00.000 : en:00:45:00.000
00:50:00.000 : en:00:50:00.000
00:55:00.000 : en:00:55:00.000
01:00:00.000 : en:01:00:00.000
01:05:00.000 : en:01:05:00.000
01:10:00.000 : en:01:10:00.000
01:15:00.000 : en:01:15:00.000
01:20:00.000 : en:01:20:00.000
01:25:00.000 : en:01:25:00.000





Джерело: &
Особиста оцінка: 8 - мені сподобалося
Крах / Катастрофа / Wrecked (2010) 1080p Ukr/Eng | sub Ukr/Eng


Крах / Катастрофа / Wrecked (2010) 1080p Ukr/Eng | sub Ukr/Eng


Авторський реліз (завантажувати можна без реєстрації)
 Трекер:    Зареєстрований   

Завантажити / скачати фільм українською



відео для новачків



 Зареєстрований:   2019-03-09 17:57
 Розмір:   8.08 GB 
 Оцінка фільму:   7.5/10 (Голосів: 11)
   
Інші релізи
bot 
робот


З нами з: 30.09.07
Востаннє: 26.05.05
Повідомлень: 22474

2019-03-09 17:57  
Тему перенесено з Анонси релізів до форуму Фільми в HD


staf777

kryk-v.ya. 
VIP


З нами з: 14.02.14
Востаннє: 17.11.19
Повідомлень: 1677

2019-03-09 21:13  
дивився цей фільм давно...
скажу чесно-вражаючий...

Ваш часовий пояс: GMT + 2 Години

Нова тема   Відповісти