Не займайте Зохана (Не жартуйте з Зоханом, Краще не чіпати Зохана) [Розширена версія] / You Don't Mess with the Zohan [Unrated] (2008) Remux 1080p 2xUkr/Eng | Sub Eng

Нові коментарі

Нова тема   Відповісти
Останній раз роздавалося staf777 (2019-09-21)
Автор Повідомлення
staf777 
Відео Гуртом - підтримка та поширення
Відео Гуртом - підтримка та поширення


З нами з: 16.11.16
Востаннє: 21.09.19
Повідомлень: 2901

2019-03-08 21:01  
Не займайте Зохана / Не жартуйте з Зоханом / Краще не чіпати Зохана [Розширена версія] / You Don't Mess with the Zohan [Unrated] (2008) Remux 1080p 2xUkr/Eng | Sub Eng

Не займайте Зохана (Не жартуйте з Зоханом, Краще не чіпати Зохана) [Розширена версія] / You Don't Mess with the Zohan [Unrated] (2008) Remux 1080p 2xUkr/Eng | Sub Eng


Жанр: бойовик, комедія, музичний, романтичний
Країна: США



Кінокомпанія: Columbia Pictures
Режисер: Денніс Дуган
Актори: Адам Сендлер, Джон Туртурро, Емануель Шрікі, Нік Свардсон, Лейні Кезан, Роб Шнайдер

Сюжет:
Зохану, агентові ізраїльської спецслужби Моссад хочеться мирного і спокійного життя. Відчуваючи, що на землі обітованою його бажання не здійсниться, він наважується на крайні заходи. Імітуючи свою смерть, Зохан зникає з Ізраїлю і, трохи змінивши зовнішність, з?являється в Нью-Йорку. Там він освоює мирну професію перукаря, знайомиться з дівчатами, словом, майже здійснює свою мрію. Але ледве тільки герой починає відчувати смак свого нового життя, як минуле наздоганяє його і Зохану доводиться згадувати своє старе ремесло.


Тривалість: 01:56:53 Розширена версія, довше театральної на 4 хвилини. На місця без перекладу присутні форсовані субтитри.

Якість: Remux 1080p
Відео:
кодек:
розмір кадру: 1920x1080
бітрейт: 22 Mб/с

Аудіо # 1:
мова: українська
переклад: професійний дубльований | Невафільм Україна
кодек: 5.1
бітрейт: 448 кб/с

Аудіо # 2:
мова: українська
переклад: багатоголосий закадровий
кодек: 2.0
бітрейт: 192 кб/с

Аудіо # 3:
мова: англійська
переклад: оригінал
кодек: TrueHD 5.1
бітрейт: 1578 кб/с

Субтитри# 1:
мова: українська (форсовані, лише на місця без перекладу)
тип: пререндерні
формат: *.pgs

Субтитри # 2-3:
мова: англійська
тип: пререндерні
формат: *.pgs
Info
General
Unique ID : 232607755259990153990380806050247329456 (0xAEFE9FC6035F6696E95B34BD41A7C6B0)
Complete name : S:\» HD українською » Фільми в HD\Комедія\You Don't Mess with the Zohan [Unrated] (2008) Remux 1080p [2xUKR_ENG] [Hurtom].
Format :
Format version : Version 4
File size : 19.8 GiB
Duration : 1 h 56 min
Overall bit rate mode : Variable
Overall bit rate : 24.3 Mb/s
Movie name : You Don't Mess with the Zohan [Unrated] (2008) Remux 1080p [2xUKR_ENG] [Hurtom]
Encoded date : UTC 2019-04-06 07:07:45
Writing application : v30.1.0 ('Forever And More') 64-bit
Writing library : libebml v1.3.6 + v1.4.9
Cover : Yes
Attachments : cover.jpg

Video
ID : 1
Format : AVC
Format/Info : Advanced Video Codec
Format profile : [email protected]
Format settings : CABAC / 2 Ref Frames
Format settings, CABAC : Yes
Format settings, ReFrames : 2 frames
Codec ID : V_MPEG4/ISO/AVC
Duration : 1 h 56 min
Bit rate mode : Variable
Bit rate : 22.0 Mb/s
Width : 1 920 pixels
Height : 1 080 pixels
Display aspect ratio : 16:9
Frame rate mode : Constant
Frame rate : 23.976 (23976/1000) FPS
Original frame rate : 23.976 (24000/1001) FPS
Color space : YUV
Chroma subsampling : 4:2:0
Bit depth : 8 bits
Scan type : Progressive
Bits/(Pixel*Frame) : 0.442
Stream size : 17.9 GiB (90%)
Default : Yes
Forced : No

Audio #1
ID : 2
Format : AC-3
Format/Info : Audio Coding 3
Commercial name : Dolby Digital
Codec ID : A_AC3
Duration : 1 h 56 min
Bit rate mode : Constant
Bit rate : 448 kb/s
Channel(s) : 6 channels
Channel layout : L R C LFE Ls Rs
Sampling rate : 48.0 kHz
Frame rate : 31.250 FPS (1536 SPF)
Bit depth : 16 bits
Compression mode : Lossy
Stream size : 375 MiB (2%)
Language : Ukrainian
Service kind : Complete Main
Default : Yes
Forced : Yes

Audio #2
ID : 3
Format : AC-3
Format/Info : Audio Coding 3
Commercial name : Dolby Digital
Codec ID : A_AC3
Duration : 1 h 56 min
Bit rate mode : Constant
Bit rate : 192 kb/s
Channel(s) : 2 channels
Channel layout : L R
Sampling rate : 48.0 kHz
Frame rate : 31.250 FPS (1536 SPF)
Bit depth : 16 bits
Compression mode : Lossy
Stream size : 161 MiB (1%)
Title : [UA-MVO- ICTV]
Language : Ukrainian
Service kind : Complete Main
Default : No
Forced : No

Audio #3
ID : 4
Format : MLP FBA
Format/Info : Meridian Lossless Packing FBA
Commercial name : Dolby TrueHD
Codec ID : A_TRUEHD
Duration : 1 h 56 min
Bit rate mode : Variable
Bit rate : 1 578 kb/s
Maximum bit rate : 2 370 kb/s
Channel(s) : 6 channels
Channel layout : L R C LFE Ls Rs
Sampling rate : 48.0 kHz
Frame rate : 1 200.000 FPS (40 SPF)
Compression mode : Lossless
Stream size : 1.29 GiB (7%)
Language : English
Default : No
Forced : No

Text #1
ID : 5
Format : PGS
Muxing mode : zlib
Codec ID : S_HDMV/PGS
Codec ID/Info : Picture based subtitle format used on BDs/HD-DVDs
Duration : 1 h 49 min
Bit rate : 7 247 b/s
Count of elements : 633
Stream size : 5.65 MiB (0%)
Language : Ukrainian
Default : Yes
Forced : Yes

Text #2
ID : 6
Format : PGS
Muxing mode : zlib
Codec ID : S_HDMV/PGS
Codec ID/Info : Picture based subtitle format used on BDs/HD-DVDs
Duration : 1 h 48 min
Bit rate : 42.4 kb/s
Count of elements : 3278
Stream size : 32.8 MiB (0%)
Language : English
Default : No
Forced : No

Text #3
ID : 7
Format : PGS
Muxing mode : zlib
Codec ID : S_HDMV/PGS
Codec ID/Info : Picture based subtitle format used on BDs/HD-DVDs
Duration : 1 h 54 min
Bit rate : 31.2 kb/s
Count of elements : 3650
Stream size : 25.5 MiB (0%)
Language : English
Default : No
Forced : No

Menu
00:00:00.000 : :Глава 01
00:07:48.092 : :Глава 02
00:13:38.567 : :Глава 03
00:19:05.102 : :Глава 04
00:28:12.982 : :Глава 05
00:34:19.432 : :Глава 06
00:41:51.133 : :Глава 07
00:47:51.868 : :Глава 08
00:54:41.861 : :Глава 09
01:02:44.343 : :Глава 10
01:10:46.283 : :Глава 11
01:18:20.362 : :Глава 12
01:26:10.498 : :Глава 13
01:31:57.803 : :Глава 14
01:39:24.583 : :Глава 15
01:48:41.514 : :Глава 16



Джерело: &
Подяка fl_fl за постер.
Особиста оцінка: 8 - не погана комедія


Золотий реліз (завантажене не впливає на рейтинг)
 Трекер:    Зареєстрований   

Завантажити / скачати фільм українською



відео для новачків



 Зареєстрований:   2019-04-06 11:28
 Розмір:   19.82 GB 
 Оцінка фільму:   9/10 (Голосів: 10)
   
bot 
робот


З нами з: 30.09.07
Востаннє: 26.05.05
Повідомлень: 22109

2019-04-06 11:28  
Тему перенесено з Анонси релізів до форуму Фільми в HD


staf777

Ваш часовий пояс: GMT + 2 Години

Нова тема   Відповісти