Покоївка з Мангеттену / Maid in Manhattan (2002) 1080p 2xUkr/Eng | Sub Eng

Нові коментарі

Нова тема   Відповісти
Автор Повідомлення
staf777 
Відео Гуртом - підтримка та поширення
Відео Гуртом - підтримка та поширення


З нами з: 16.11.16
Востаннє: 15.12.19
Повідомлень: 3071

2019-03-08 19:48  
Покоївка з Мангеттену / Maid in Manhattan (2002) 1080p 2xUkr/Eng | Sub Eng

Покоївка з Мангеттену / Maid in Manhattan (2002) 1080p 2xUkr/Eng | Sub Eng


Жанр: комедія, романтика, драма
Країна: США



Кінокомпанія: Revolution Studios, Red Om Films, Hughes Entertainment
Режисер: Вейн Вонґ (Wayne Wang)
Актори: Дженіфер Лопез (Jennifer Lopez), Ральф Файнс (Ralph Fiennes), Наташа Річардсон (Natasha Richardson), Стенлі Туччі (Stanley Tucci), Боб Госкінс (Bob Hoskins) та інші.

Сюжет:
Маріса Ветура (Дженніфер Лопез) — мати, що живе в Бронксі з сином Ті та працює покоївкою в першокласному готелі в Мангеттені, в Нью-Йорку. Вона закохується в багатого бізнесмена Крістофера Гелла (Ральф Файнс), спадкоємця американської політичної династії, що приїхав до Нью-Йорка лише на тиждень. Кріс, не знаючи, що вона працює в готелі покоївкою, приймає її за дівчину з вищого світу.


Тривалість: 01:45:17
Якість: 1080p
Відео:
кодек:
розмір кадру: 1920x800
бітрейт: 9800 кб/с

Аудіо # 1:
мова: українська
переклад: двоголосий закадровий
кодек: 2.0
бітрейт: 192 кб/с
Інформація про озвучення
Текст читали актори: Олександр Завальський та Лідія Муращенко
Запис звуку з трансляції телеканалу "1+1" (VHS).
На відрізку 00:33:13-00:33:27 вставка озвучення "Нового" каналу (після рекламна вставка).
Аудіо # 2:
мова: українська
переклад: двоголосий закадровий
кодек: 2.0
бітрейт: 192 кб/с
Інформація про озвучення
Текст читали актори: Михайло Жонін та Олена Узлюк
Запис звуку з трансляції телеканалу "Новий" (SAT)
Аудіо # 3:
мова: англійська
переклад: оригінал
кодек: 5.1
бітрейт: 640 кб/с

Субтитри:
мова: англійська
тип: програмні (м'які)
формат: *.srt
Info
General
Unique ID : 117803940070730780302066075513490387801 (0x58A036ACD8433FCBEEA1073BA76A3359)
Complete name : S:\» HD українською » Фільми в HD\Комедія\Maid In Manhattan (2002) [Ukr,Eng sub.Eng] 1080p [Hurtom].
Format :
Format version : Version 4
File size : 7.72 GiB
Duration : 1 h 45 min
Overall bit rate : 10.5 Mb/s
Movie name : Maid In Manhattan (2002) [Ukr,Eng sub.Eng] 1080p [Hurtom]
Encoded date : UTC 2019-03-09 19:03:57
Writing application : v30.1.0 ('Forever And More') 64-bit
Writing library : libebml v1.3.6 + v1.4.9
Cover : Yes
Attachments : cover.jpg

Video
ID : 1
Format : AVC
Format/Info : Advanced Video Codec
Format profile : [email protected]
Format settings : CABAC / 3 Ref Frames
Format settings, CABAC : Yes
Format settings, ReFrames : 3 frames
Codec ID : V_MPEG4/ISO/AVC
Duration : 1 h 45 min
Bit rate : 9 800 kb/s
Width : 1 920 pixels
Height : 800 pixels
Display aspect ratio : 2.40:1
Frame rate mode : Constant
Frame rate : 23.976 (24000/1001) FPS
Color space : YUV
Chroma subsampling : 4:2:0
Bit depth : 8 bits
Scan type : Progressive
Bits/(Pixel*Frame) : 0.266
Stream size : 6.96 GiB (90%)
Writing library : core 65 r999kMod cc51047
Encoding settings : cabac=1 / ref=3 / deblock=1:0:0 / analyse=0x3:0x133 / me=umh / subme=6 / psy_rd=1.0:0.0 / mixed_ref=1 / me_range=16 / chroma_me=1 / trellis=1 / 8x8dct=1 / cqm=0 / deadzone=21,11 / chroma_qp_offset=-2 / threads=2 / thread_queue=2 / nr=0 / decimate=1 / mbaff=0 / bframes=3 / b_pyramid=1 / b_adapt=1 / b_bias=0 / direct=1 / wpredb=1 / keyint=250 / keyint_min=25 / scenecut=40(pre) / rc=abr / bitrate=9800 / ratetol=1.0 / qcomp=0.60 / qpmin=10 / qpmax=51 / qpstep=4 / ip_ratio=1.40 / pb_ratio=1.30 / aq=1:1.00
Default : Yes
Forced : No

Audio #1
ID : 2
Format : AC-3
Format/Info : Audio Coding 3
Commercial name : Dolby Digital
Codec ID : A_AC3
Duration : 1 h 45 min
Bit rate mode : Constant
Bit rate : 192 kb/s
Channel(s) : 2 channels
Channel layout : L R
Sampling rate : 48.0 kHz
Frame rate : 31.250 FPS (1536 SPF)
Bit depth : 16 bits
Compression mode : Lossy
Stream size : 145 MiB (2%)
Title : UA-DVO, VHS|
Language : Ukrainian
Service kind : Complete Main
Default : Yes
Forced : Yes

Audio #2
ID : 3
Format : AC-3
Format/Info : Audio Coding 3
Commercial name : Dolby Digital
Codec ID : A_AC3
Duration : 1 h 45 min
Bit rate mode : Constant
Bit rate : 192 kb/s
Channel(s) : 2 channels
Channel layout : L R
Sampling rate : 48.0 kHz
Frame rate : 31.250 FPS (1536 SPF)
Bit depth : 16 bits
Compression mode : Lossy
Stream size : 145 MiB (2%)
Language : Ukrainian
Service kind : Complete Main
Default : No
Forced : No

Audio #3
ID : 4
Format : AC-3
Format/Info : Audio Coding 3
Commercial name : Dolby Digital
Codec ID : A_AC3
Duration : 1 h 45 min
Bit rate mode : Constant
Bit rate : 640 kb/s
Channel(s) : 6 channels
Channel layout : L R C LFE Ls Rs
Sampling rate : 48.0 kHz
Frame rate : 31.250 FPS (1536 SPF)
Bit depth : 16 bits
Compression mode : Lossy
Stream size : 482 MiB (6%)
Language : English
Service kind : Complete Main
Default : No
Forced : No

Text
ID : 5
Format : UTF-8
Codec ID : S_TEXT/UTF8
Codec ID/Info : UTF-8 Plain Text
Duration : 1 h 37 min
Bit rate : 76 b/s
Count of elements : 1449
Stream size : 54.9 KiB (0%)
Language : English
Default : No
Forced : No
Скріншоти




Доріжка №1 та синхрон - robotron005,
Запис доріжки №2 - SalCom (синхрон - robotron005)

Джерело: &


Срібний реліз (на рейтинг впливає 50% завантаженого)
 Трекер:    Зареєстрований   

Завантажити / скачати фільм українською



відео для новачків



 Зареєстрований:   2019-03-09 22:31
 Розмір:   7.72 GB 
 Оцінка фільму:   8.2/10 (Голосів: 5)
   
bot 
робот


З нами з: 30.09.07
Востаннє: 26.05.05
Повідомлень: 22655

2019-03-09 22:31  
Тему перенесено з Анонси релізів до форуму Фільми в HD


staf777

VitNi 
Свій


З нами з: 05.05.12
Востаннє: 15.12.19
Повідомлень: 128

2019-03-09 23:28  
Приємна казочка для провінціалок з гарними акторами...
11FrYkT 
Модератор відео


З нами з: 20.02.11
Востаннє: 14.12.19
Повідомлень: 6393

2019-03-10 08:41  
staf777 написано:
subme=6 /

Параметри кодування мають відповідати хоча б me=umh, subme=7, ref=3

staf777 
Відео Гуртом - підтримка та поширення
Відео Гуртом - підтримка та поширення


З нами з: 16.11.16
Востаннє: 15.12.19
Повідомлень: 3071

2019-03-10 09:36  
11FrYkT
знайшов ще один ріп на кінозалі - вечором перероблю - ось тільки щось нема там сидів

Ваш часовий пояс: GMT + 2 Години

Нова тема   Відповісти