Таємниця будинку (магазину) іграшок / Tea Pets (2017)

Нові коментарі

Нова тема   Відповісти
Автор Повідомлення
Anonymous 







2019-03-08 18:16  
Таємниця будинку іграшок / Tea Pets (2017)

Таємниця будинку (магазину) іграшок / Tea Pets (2017)
Альтернативні постери:

Таємниця будинку (магазину) іграшок / Tea Pets (2017)







Таємниця будинку (магазину) іграшок / Tea Pets (2017)

Таємниця будинку (магазину) іграшок / Tea Pets (2017)


Жанр: анімація, сімейний, фентезі, пригодницький
Країна: Китай



Кінокомпанія: Light Chaser Animation Studios
Режисер: Ґері Ван / Gary Wang
В оригіналі ролі озвучили: Ші Лей, Юань Цзеюй, Цзі Гуаньлінь, Хун Хуан, Чжан Лей, Янь Яньшен, Івонн Чжао

Сюжет:
Робот Таймбот падає на Землю після того, як його космічний корабель зазнає аварії. Він потрапляє в магазин порцелянових іграшок, мешканці якого жили тихим і спокійним життям - грали, а ночами лякали один одного історіями про якогось Правителя підземелля, який за допомогою вірних помічників - щурів викрадає їх друзів з сусідніх магазинів. Одного разу пропадає їх подружка Мей, і іграшки на чолі з Таймботом тікають з магазину і вирушають в місто на її пошуки. З цього і починаються цікаві, повні гумору та пригод подорожі маленьких героїв під здивовані погляди мешканців міста.
Офіційний український трейлер:


Вікова категорія: 6+

Тривалість: 01:37:35
Якість: [Hurtom]

Відео:
кодек:
розмір кадру: 720 х 304
бітрейт: 1925 кб/с
примітка: відеоряд з російською локалізацією
Зразок:



Аудіо:
мова: українська
переклад: професійний дубльований | студія Tretyakoff production
кодек: 2.0
бітрейт: 192 кб/с
Info
Код:
General
Complete name               : Tea Pets (2017) [Ukr] [Hurtom].avi
Format                      : AVI
Format/Info                 : Audio Video Interleave
File size                   : 1.45 GiB
Duration                    : 1 h 37 min
Overall bit rate            : 2 126 kb/s
Movie name                  : Таємниця будинку іграшок / Tea Pets (2017) [Ukr] [Hurtom]
Writing application         : VirtualDubModUkr 1.5.10.2 (build 2542/release)
Writing library             : VirtualDubMod build 2542/release

Video
ID                          : 0
Format                      : MPEG-4 Visual
Format profile              : Advanced [email protected]
Format settings             : BVOP1
Format settings, BVOP       : 1
Format settings, QPel       : No
Format settings, GMC        : No warppoints
Format settings, Matrix     : Default (MPEG)
Codec ID                    :
Codec ID/Hint               :
Duration                    : 1 h 37 min
Bit rate                    : 1 925 kb/s
Width                       : 720 pixels
Height                      : 304 pixels
Display aspect ratio        : 2.35:1
Frame rate                  : 24.000 FPS
Color space                 : YUV
Chroma subsampling          : 4:2:0
Bit depth                   : 8 bits
Scan type                   : Progressive
Compression mode            : Lossy
Bits/(Pixel*Frame)          : 0.366
Stream size                 : 1.31 GiB (91%)
Writing library             : 67

Audio
ID                          : 1
Format                      : AC-3
Format/Info                 : Audio Coding 3
Commercial name             : Dolby Digital
Codec ID                    : 2000
Duration                    : 1 h 37 min
Bit rate mode               : Constant
Bit rate                    : 192 kb/s
Channel(s)                  : 2 channels
Channel layout              : L R
Sampling rate               : 44.1 kHz
Frame rate                  : 28.711 FPS (1536 SPF)
Bit depth                   : 16 bits
Compression mode            : Lossy
Stream size                 : 134 MiB (9%)
Alignment                   : Split accross interleaves
Interleave, duration        : 42  ms (1.00 video frame)
Interleave, preload duratio : 500  ms
Title                       : UKR DUB [stereo]
Service kind                : Complete Main


Джерело:
Першоджерело відео/звуку: https://toloka.to/t99532


 Трекер:    Зареєстрований   

Завантажити / скачати мультфільм українською



відео для новачків



 Зареєстрований:   2019-03-08 18:16
 Розмір:   1.45 GB 
 Оцінка мультфільму:   9.1/10 (Голосів: 23)
 ЗАЛИШАЙТЕСЬ ЯКОМОГА ДОВШЕ НА РОЗДАЧІ! ЗАВАНТАЖИВ САМ - ДАЙ ЗАВАНТАЖИТИ ІНШИМ!
   
sergiyko.5 
VIP


З нами з: 25.02.16
Востаннє: 17.06.19
Повідомлень: 2328

2019-03-08 18:35  
igor911, а чому першоджерело не в прикріплених релізах?

Додано через 2 хвилини 22 секунди:

Можете прямо вказати, що за купівлю мультика подяка користувачу sergiyko, я не проти.

jaral 
Відео Гуртом - підтримка та поширення
Відео Гуртом - підтримка та поширення


З нами з: 18.10.07
Востаннє: 17.06.19
Повідомлень: 783

2019-03-08 18:48  
igor911 написано:
відеоряд з російською локалізацією

Коли буде оригінальний відеоряд, а то популяризувати вороже російське, або русифіковане китайське кіно між українцями, злочин!

11FrYkT 
Модератор відео


З нами з: 20.02.11
Востаннє: 17.06.19
Повідомлень: 5993

2019-03-10 09:50  
sergiyko.5 написано:
Можете прямо вказати, що за купівлю мультика подяка користувачу sergiyko, я не проти.

краще ви б його так зразу не купували

Dark Invader 
Модератор відео


З нами з: 06.01.11
Востаннє: 18.06.19
Повідомлень: 2652

2019-03-11 17:52  
Додайте скріншоти.
dimon-2018 
VIP


З нами з: 06.05.18
Востаннє: 17.06.19
Повідомлень: 256

2019-03-13 17:11  
Anonymous, студія дубляжу - Tretyakoff production.
d.mich 
Новенький


З нами з: 01.06.14
Востаннє: 17.06.19
Повідомлень: 4

2019-03-16 18:29  
як мультфільм?
Anonymous 







2019-03-16 23:59  
d.mich написано:
як мультфільм?

гарний. в описі є трейлер для ознайомлення.

Ваш часовий пояс: GMT + 2 Години

Нова тема   Відповісти