Тримай язика за зубами / Keeping Mum (2005) Remux 1080p Ukr/Eng | sub Eng

Нові коментарі

Нова тема   Відповісти
Автор Повідомлення
staf777 
Відео Гуртом - підтримка та поширення
Відео Гуртом - підтримка та поширення


З нами з: 16.11.16
Востаннє: 22.04.19
Повідомлень: 2283

2019-03-08 09:27  
Тримай язика за зубами / Keeping Mum (2005) Remux 1080p Ukr/Eng | sub Eng

Тримай язика за зубами / Keeping Mum (2005) Remux 1080p Ukr/Eng | sub Eng
Оригінальна обкладинка

Тримай язика за зубами / Keeping Mum (2005) Remux 1080p Ukr/Eng | sub Eng
Жанр: комедія, кримінальний, трилер
Країна: Велика Британія



Кінокомпанія: Summit Entertainment, Isle of Man Film, Azure Films, Tusk Productions, Keeping Mum Productions
Режисер: Наєл Джонсон
Актори: Меґі Сміт, Ровен Аткінсон, Крістін Скотт Томас, Патрік Свейзі, Темсін Еґертон, Тобі Паркс, Ліз Сміт, Емілія Фокс, Джеймс Бут, Патрік Монктон, Ровлі Ірлем, Вів'єн Мур, Мюррей МакАртур, Морґан Ґовер та інші

Сюжет:
Чого може очікувати від Бога звичайний англійський вікарій після багатьох років відданої служби? Мабуть, добробуту у власній сім'ї, щоб там панувало щастя і взаєморозуміння. Але, на жаль, як і більшість сімей, сім'я священника має купу проблем. Про більшість із яких сам священник навіть не підозрює. Та, зрештою, Бог змилувався над ним і благословив його сім'ю новою домогосподаркою. Та чи не сталося, випадково, прикрого непорозуміння, адже виявляється, що домогосподарка аж ніяк не та, за кого себе видає.


Тривалість: 01:43:07
Якість: Remux 1080p
Відео:
кодек:
розмір кадру: 1920x1080
бітрейт: 30,8 Mб/с

Аудіо # 1:
мова: українська
переклад: двоголосий закадровий
кодек: 5.1
бітрейт: 448 кб/с

Аудіо # 2:
мова: англійська
переклад: оригінал
кодек: -HD MA 5.1
бітрейт: 1934 кб/с

Субтитри:
мова: англійська
тип: пререндерні
формат: *.pgs
Info
General
Unique ID : 68009210987227161548973147004746087424 (0x332A18FBE24EA9DAD26A71598BD03C00)
Complete name : S:\» HD українською » Фільми в HD\Комедія\Keeping Mum (2005) Remux 1080p [UKR_ENG] [Hurtom].
Format :
Format version : Version 4
File size : 23.9 GiB
Duration : 1 h 43 min
Overall bit rate mode : Variable
Overall bit rate : 33.2 Mb/s
Movie name : Keeping Mum (2005) Remux 1080p [UKR_ENG] [Hurtom]
Encoded date : UTC 2019-03-23 18:25:52
Writing application : v30.1.0 ('Forever And More') 64-bit
Writing library : libebml v1.3.6 + v1.4.9
Cover : Yes
Attachments : cover.jpg

Video
ID : 1
Format : AVC
Format/Info : Advanced Video Codec
Format profile : [email protected]
Format settings : CABAC / 4 Ref Frames
Format settings, CABAC : Yes
Format settings, ReFrames : 4 frames
Format settings, GOP : M=3, N=24
Codec ID : V_MPEG4/ISO/AVC
Duration : 1 h 43 min
Bit rate mode : Variable
Bit rate : 30.8 Mb/s
Maximum bit rate : 35.0 Mb/s
Width : 1 920 pixels
Height : 1 080 pixels
Display aspect ratio : 16:9
Frame rate mode : Constant
Frame rate : 23.976 (24000/1001) FPS
Standard : NTSC
Color space : YUV
Chroma subsampling : 4:2:0
Bit depth : 8 bits
Scan type : Progressive
Bits/(Pixel*Frame) : 0.620
Stream size : 22.2 GiB (93%)
Default : Yes
Forced : No
Color range : Limited
Color primaries : BT.709
Transfer characteristics : BT.709
Matrix coefficients : BT.709

Audio #1
ID : 2
Format : AC-3
Format/Info : Audio Coding 3
Commercial name : Dolby Digital
Codec ID : A_AC3
Duration : 1 h 43 min
Bit rate mode : Constant
Bit rate : 448 kb/s
Channel(s) : 6 channels
Channel layout : L R C LFE Ls Rs
Sampling rate : 48.0 kHz
Frame rate : 31.250 FPS (1536 SPF)
Bit depth : 16 bits
Compression mode : Lossy
Stream size : 330 MiB (1%)
Language : Ukrainian
Service kind : Complete Main
Default : Yes
Forced : Yes

Audio #2
ID : 3
Format : XLL
Format/Info : Digital Theater Systems
Commercial name : -HD Master Audio
Codec ID : A_DTS
Duration : 1 h 43 min
Bit rate mode : Variable
Bit rate : 1 934 kb/s
Channel(s) : 6 channels
Channel layout : C L R Ls Rs LFE
Sampling rate : 48.0 kHz
Frame rate : 93.750 FPS (512 SPF)
Bit depth : 16 bits
Compression mode : Lossless
Stream size : 1.39 GiB (6%)
Language : English
Default : No
Forced : No

Text
ID : 4
Format : PGS
Muxing mode : zlib
Codec ID : S_HDMV/PGS
Codec ID/Info : Picture based subtitle format used on BDs/HD-DVDs
Duration : 1 h 42 min
Bit rate : 53.0 kb/s
Count of elements : 3356
Stream size : 38.9 MiB (0%)
Language : English
Default : No
Forced : No
Скріншоти





Подяки:
за створення початкової української доріжки п. MAKAPOHHIK
за український постер п. hellforces

Джерело: &
Особиста оцінка: 8 - мені сподобалося
Тримай язика за зубами / Keeping Mum (2005) Remux 1080p Ukr/Eng | sub Eng


Золотий реліз (завантажене не впливає на рейтинг)
 Трекер:    Зареєстрований   

Завантажити / скачати фільм українською



відео для новачків



 Зареєстрований:   2019-03-23 22:33
 Розмір:   23.94 GB 
 Оцінка фільму:   9.2/10 (Голосів: 12)
   
bot 
робот


З нами з: 30.09.07
Востаннє: 26.05.05
Повідомлень: 21236

2019-03-23 22:32  
Тему перенесено з Анонси релізів до форуму Фільми в HD


staf777

Ваш часовий пояс: GMT + 2 Години

Нова тема   Відповісти