Тримай язика за зубами / Keeping Mum (2005) 1080p Ukr/Eng | sub Eng

Нові коментарі

Нова тема   Відповісти
Автор Повідомлення
staf777 
Відео Гуртом - підтримка та поширення
Відео Гуртом - підтримка та поширення


З нами з: 16.11.16
Востаннє: 23.04.19
Повідомлень: 2285

2019-03-08 09:24  
Тримай язика за зубами / Keeping Mum (2005) 1080p Ukr/Eng | sub Eng

Оригінальна обкладинка

Тримай язика за зубами / Keeping Mum (2005) 1080p Ukr/Eng | sub Eng
Жанр: комедія, кримінальний, трилер
Країна: Велика Британія



Кінокомпанія: Summit Entertainment, Isle of Man Film, Azure Films, Tusk Productions, Keeping Mum Productions
Режисер: Наєл Джонсон
Актори: Меґі Сміт, Ровен Аткінсон, Крістін Скотт Томас, Патрік Свейзі, Темсін Еґертон, Тобі Паркс, Ліз Сміт, Емілія Фокс, Джеймс Бут, Патрік Монктон, Ровлі Ірлем, Вів'єн Мур, Мюррей МакАртур, Морґан Ґовер та інші

Сюжет:
Чого може очікувати від Бога звичайний англійський вікарій після багатьох років відданої служби? Мабуть, добробуту у власній сім'ї, щоб там панувало щастя і взаєморозуміння. Але, на жаль, як і більшість сімей, сім'я священника має купу проблем. Про більшість із яких сам священник навіть не підозрює. Та, зрештою, Бог змилувався над ним і благословив його сім'ю новою домогосподаркою. Та чи не сталося, випадково, прикрого непорозуміння, адже виявляється, що домогосподарка аж ніяк не та, за кого себе видає.


Тривалість: 01:43:07
Якість: 1080p
Відео:
кодек:
розмір кадру: 1920x816
бітрейт: 10.6 Mб/с

Аудіо # 1:
мова: українська
переклад: двоголосий закадровий
кодек: 5.1
бітрейт: 448 кб/с

Аудіо # 2:
мова: англійська
переклад: оригінал
кодек: 5.1
бітрейт: 1509 кб/с

Субтитри:
мова: англійська
тип: програмні (м'які)
формат: *.srt
Info
General
Unique ID : 290388862632363100771310167269179140432 (0xDA76DC50AD1F1E432A468134900C2950)
Complete name : S:\» HD українською » Фільми в HD\Комедія\Keeping Mum (2005) 1080p [UKR_ENG] [Hurtom].
Format :
Format version : Version 4
File size : 9.06 GiB
Duration : 1 h 43 min
Overall bit rate : 12.6 Mb/s
Movie name : Keeping Mum (2005) 1080p [UKR_ENG] [Hurtom]
Encoded date : UTC 2019-03-08 10:35:31
Writing application : v30.1.0 ('Forever And More') 64-bit
Writing library : libebml v1.3.6 + v1.4.9
Cover : Yes
Attachments : cover.jpg

Video
ID : 1
Format : AVC
Format/Info : Advanced Video Codec
Format profile : [email protected]
Format settings : CABAC / 4 Ref Frames
Format settings, CABAC : Yes
Format settings, ReFrames : 4 frames
Codec ID : V_MPEG4/ISO/AVC
Duration : 1 h 43 min
Bit rate : 10.6 Mb/s
Width : 1 920 pixels
Height : 816 pixels
Display aspect ratio : 2.35:1
Frame rate mode : Constant
Frame rate : 23.976 FPS
Color space : YUV
Chroma subsampling : 4:2:0
Bit depth : 8 bits
Scan type : Progressive
Bits/(Pixel*Frame) : 0.283
Stream size : 7.65 GiB (84%)
Title : Keeping Mum (2005) PFa
Writing library : core 102 r1666 d058f37
Encoding settings : cabac=1 / ref=4 / deblock=1:0:0 / analyse=0x3:0x133 / me=umh / subme=8 / psy=1 / psy_rd=1.00:0.00 / mixed_ref=1 / me_range=16 / chroma_me=1 / trellis=1 / 8x8dct=1 / cqm=0 / deadzone=21,11 / fast_pskip=0 / chroma_qp_offset=-2 / threads=3 / sliced_threads=0 / nr=0 / decimate=1 / interlaced=0 / constrained_intra=0 / bframes=3 / b_pyramid=2 / b_adapt=1 / b_bias=0 / direct=1 / weightb=1 / open_gop=0 / weightp=2 / keyint=250 / keyint_min=25 / scenecut=40 / intra_refresh=0 / rc_lookahead=40 / rc=2pass / mbtree=1 / bitrate=10621 / ratetol=1.0 / qcomp=0.60 / qpmin=10 / qpmax=51 / qpstep=4 / cplxblur=20.0 / qblur=0.5 / ip_ratio=1.40 / aq=1:1.00
Language : English
Default : No
Forced : No

Audio #1
ID : 2
Format : AC-3
Format/Info : Audio Coding 3
Commercial name : Dolby Digital
Codec ID : A_AC3
Duration : 1 h 43 min
Bit rate mode : Constant
Bit rate : 448 kb/s
Channel(s) : 6 channels
Channel layout : L R C LFE Ls Rs
Sampling rate : 48.0 kHz
Frame rate : 31.250 FPS (1536 SPF)
Bit depth : 16 bits
Compression mode : Lossy
Stream size : 330 MiB (4%)
Title : DVO"НТН"
Language : Ukrainian
Service kind : Complete Main
Default : Yes
Forced : Yes

Audio #2
ID : 3
Format :
Format/Info : Digital Theater Systems
Codec ID : A_DTS
Duration : 1 h 43 min
Bit rate mode : Constant
Bit rate : 1 509 kb/s
Channel(s) : 6 channels
Channel layout : C L R Ls Rs LFE
Sampling rate : 48.0 kHz
Frame rate : 93.750 FPS (512 SPF)
Bit depth : 16 bits
Compression mode : Lossy
Stream size : 1.09 GiB (12%)
Title : 5.1 @ 1536 Kbps
Language : English
Default : No
Forced : No

Text
ID : 4
Format : UTF-8
Codec ID : S_TEXT/UTF8
Codec ID/Info : UTF-8 Plain Text
Duration : 1 h 37 min
Bit rate : 55 b/s
Count of elements : 988
Stream size : 39.7 KiB (0%)
Title : English
Language : English
Default : No
Forced : No
Скріншоти





Подяки:
за створення початкової української доріжки п. MAKAPOHHIK
за український постер п. hellforces

Джерело: &
Особиста оцінка: 8 - мені сподобалося
Тримай язика за зубами / Keeping Mum (2005) 1080p Ukr/Eng | sub Eng


 Трекер:    Зареєстрований   

Завантажити / скачати фільм українською



відео для новачків



 Зареєстрований:   2019-03-08 16:32
 Розмір:   9.06 GB 
 Оцінка фільму:   8.7/10 (Голосів: 7)
   
bot 
робот


З нами з: 30.09.07
Востаннє: 26.05.05
Повідомлень: 21237

2019-03-08 16:32  
Тему перенесено з Анонси релізів до форуму Фільми в HD


staf777

Ваш часовий пояс: GMT + 2 Години

Нова тема   Відповісти