Таємниця будинку (магазину) іграшок / Tea Pets (2017) AVC

Нові коментарі

Нова тема   Відповісти
Автор Повідомлення
sergiyko.5 
VIP


З нами з: 25.02.16
Востаннє: 16.06.19
Повідомлень: 2327

2019-03-07 20:24  
Таємниця будинку іграшок / Tea Pets (2017) AVC

Таємниця будинку (магазину) іграшок / Tea Pets (2017) AVC

Жанр: пригоди, фентазі
Країна: Китай, Light Chaser Animation Studios
Режисер: Гері Ван

Сюжет:
Історія симпатичних порцелянових іграшок, які живуть своїм цікавим таємним життям, поки їх не бачать сторонні. Але одного разу, через аварію на космічному кораблі, до крамнички іграшок потрапляє робот, і ось тут починаються справжні пригоди! На нових друзів чекають захопливі мандрівки, магічні таємниці і чатує небезпека, адже вони всі такі тендітні!..




Тривалість: 01:37:36
Якість:

Відео: кодек: розмір кадру: 1024 х 424 бітрейт: 1 383 кб/с
Аудіо: мова: українська переклад: професійний дубльований кодек: 2.0 ch бітрейт: 192 кб/с

Примітка: відеоряд з російською локалізацією
Зразок:
Про файл:
General
Unique ID : 73079718970330041348839045502374953405 (0x36FAA45429E8B8732B32E016AD02C1BD)
Complete name : G:\Torrents2\MULT\Tea Pets.2017..
Format :
Format version : Version 4
File size : 1.07 GiB
Duration : 1 h 37 min
Overall bit rate : 1 575 kb/s
Movie name : Tea Pets 2017 by sergiyko
Encoded date : UTC 2019-03-08 10:26:18
Writing application : v30.0.0 ('Interstellar') 64-bit
Writing library : libebml v1.3.6 + v1.4.9
Cover : Yes
Attachments : cover.jpeg

Video
ID : 1
Format : AVC
Format/Info : Advanced Video Codec
Format profile : [email protected]
Format settings : CABAC / 10 Ref Frames
Format settings, CABAC : Yes
Format settings, ReFrames : 10 frames
Codec ID : V_MPEG4/ISO/AVC
Duration : 1 h 37 min
Bit rate : 1 383 kb/s
Width : 1 024 pixels
Height : 424 pixels
Display aspect ratio : 2.40:1
Frame rate mode : Constant
Frame rate : 24.000 FPS
Color space : YUV
Chroma subsampling : 4:2:0
Bit depth : 8 bits
Scan type : Progressive
Bits/(Pixel*Frame) : 0.133
Stream size : 965 MiB (88%)
Title : Tea Pets 2017
Writing library : core 152 r2851 ba24899
Encoding settings : cabac=1 / ref=10 / deblock=1:0:0 / analyse=0x3:0x133 / me=umh / subme=9 / psy=1 / psy_rd=0.40:0.00 / mixed_ref=1 / me_range=24 / chroma_me=1 / trellis=2 / 8x8dct=1 / cqm=0 / deadzone=21,11 / fast_pskip=1 / chroma_qp_offset=-2 / threads=13 / lookahead_threads=1 / sliced_threads=0 / nr=0 / decimate=1 / interlaced=0 / bluray_compat=0 / constrained_intra=0 / bframes=5 / b_pyramid=2 / b_adapt=2 / b_bias=0 / direct=3 / weightb=1 / open_gop=0 / weightp=2 / keyint=250 / keyint_min=23 / scenecut=40 / intra_refresh=0 / rc_lookahead=60 / rc=crf / mbtree=1 / crf=19.0 / qcomp=0.70 / qpmin=0 / qpmax=69 / qpstep=4 / ip_ratio=1.40 / aq=1:0.60
Language : English
Default : Yes
Forced : No

Audio
ID : 2
Format : LC
Format/Info : Advanced Audio Codec Low Complexity
Codec ID : A_AAC-2
Duration : 1 h 37 min
Bit rate : 192 kb/s
Channel(s) : 2 channels
Channel layout : L R
Sampling rate : 44.1 kHz
Frame rate : 43.066 FPS (1024 SPF)
Compression mode : Lossy
Stream size : 132 MiB (12%)
Title : DUB 2.0ch
Language : Ukrainian
Default : Yes
Forced : No
Скріншоти:



Запис: sergiyko


 Трекер:    Зареєстрований   

Завантажити / скачати мультфільм українською



відео для новачків



 Зареєстрований:   2019-03-08 13:31
 Розмір:   1.07 GB 
 Оцінка мультфільму:   9.3/10 (Голосів: 15)
   
bot 
робот


З нами з: 30.09.07
Востаннє: 26.05.05
Повідомлень: 21517

2019-03-07 20:24  
Тему перенесено з Мультфільми до форуму Анонси релізів


sergiyko.5

bot 
робот


З нами з: 30.09.07
Востаннє: 26.05.05
Повідомлень: 21517

2019-03-08 13:31  
Тему перенесено з Анонси релізів до форуму Мультфільми


sergiyko.5

igor911 
Модератор відео


З нами з: 18.01.08
Востаннє: 16.06.19
Повідомлень: 12654

2019-03-08 13:38  
Треба вказати, що відеоряд з російською локалізацією та додати скріншот(-и) для наочності.
sergiyko.5 
VIP


З нами з: 25.02.16
Востаннє: 16.06.19
Повідомлень: 2327

2019-03-09 22:13  
Якість в цьому торенті краща за ріп anonymousa
igor911 
Модератор відео


З нами з: 18.01.08
Востаннє: 16.06.19
Повідомлень: 12654

2019-03-09 23:48  
sergiyko.5 написано:
Таємниця магазину іграшок

Правила оформлення відео-релізу написано:
Обов'язково вказувати назву фільму, яку йому дала студія озвучення

В даному випадку треба виправити українську назву на "Таємниця будинку іграшок". В назві теми можна додати альтернативну назву, скальковану в росіян (для покращення пошуку).

sergiyko.5 
VIP


З нами з: 25.02.16
Востаннє: 16.06.19
Повідомлень: 2327

2019-03-15 17:27  
igor911
вказав

Ваш часовий пояс: GMT + 2 Години

Нова тема   Відповісти