Таємниця будинку іграшок / Tea Pets (2017) AVC Ukr/Chi

Нові коментарі

Нова тема   Відповісти
Автор Повідомлення
sergiyko.5 
Забанено
Забанено


З нами з: 25.02.16
Востаннє: 29.10.20
Повідомлень: 3651

2019-03-07 19:24  
Таємниця будинку іграшок / Tea Pets (2017) AVC Ukr/Chi


Таємниця будинку іграшок / Tea Pets (2017) AVC Ukr/Chi

Жанр: пригодницький, фентезі
Країна: Китай
Кінокомпанія: Light Chaser Animation Studios
Режисер: Гері Ван

Сюжет:
Історія симпатичних порцелянових іграшок, які живуть своїм цікавим таємним життям, поки їх не бачать сторонні. Але одного разу, через аварію на космічному кораблі, до крамнички іграшок потрапляє робот, і ось тут починаються справжні пригоди! На нових друзів чекають захопливі мандрівки, магічні таємниці і чатує небезпека, адже вони всі такі тендітні!..



Тривалість: 01:37:46
Якість:

Відео: кодек: розмір кадру: 1024 х 424 бітрейт: 1 300 кб/с
Аудіо 1: мова: українська переклад: професійний дубльований | студія Tretyakoff production кодек: 5.1 ch бітрейт: 384 кб/с
Аудіо 2: мова: китайська переклад: оригінал кодек: 2.0 бітрейт: 192 кб/с
Про файл:
General
Unique ID : 132266639920092686028293978417432801686 (0x6381A0D4C43902EF487B08526266B196)
Complete name : D:\Documents\Torrents\MULTSER_2\Tea.Pets.2017..sergiyko.
Format :
Format version : Version 4
File size : 1.28 GiB
Duration : 1 h 37 min
Overall bit rate : 1 873 kb/s
Movie name : Tea Pets 2017 rip by sergiyko
Encoded date : UTC 2020-06-14 12:57:00
Writing application : v47.0.0 ('Black Flag') 64-bit
Writing library : libebml v1.3.10 + v1.5.2
Cover : Yes
Attachments : cover.jpeg

Video
ID : 1
Format : AVC
Format/Info : Advanced Video Codec
Format profile : [email protected]
Format settings : CABAC / 10 Ref Frames
Format settings, CABAC : Yes
Format settings, Reference : 10 frames
Codec ID : V_MPEG4/ISO/AVC
Duration : 1 h 37 min
Bit rate : 1 295 kb/s
Width : 1 024 pixels
Height : 424 pixels
Display aspect ratio : 2.40:1
Frame rate mode : Constant
Frame rate : 24.000 FPS
Color space : YUV
Chroma subsampling : 4:2:0
Bit depth : 8 bits
Scan type : Progressive
Bits/(Pixel*Frame) : 0.124
Stream size : 905 MiB (69%)
Title : Tea Pets 2017
Writing library : core 159
Encoding settings : cabac=1 / ref=10 / deblock=1:0:0 / analyse=0x3:0x133 / me=umh / subme=10 / psy=1 / psy_rd=1.00:0.00 / mixed_ref=1 / me_range=24 / chroma_me=1 / trellis=2 / 8x8dct=1 / cqm=0 / deadzone=21,11 / fast_pskip=1 / chroma_qp_offset=-2 / threads=13 / lookahead_threads=2 / sliced_threads=0 / nr=0 / decimate=1 / interlaced=0 / bluray_compat=0 / constrained_intra=0 / bframes=8 / b_pyramid=2 / b_adapt=2 / b_bias=0 / direct=3 / weightb=1 / open_gop=0 / weightp=2 / keyint=250 / keyint_min=24 / scenecut=40 / intra_refresh=0 / rc_lookahead=60 / rc=crf / mbtree=1 / crf=19.0 / qcomp=0.60 / qpmin=0 / qpmax=69 / qpstep=4 / ip_ratio=1.40 / aq=1:1.00
Language : English
Default : Yes
Forced : No

Audio #1
ID : 2
Format : AC-3
Format/Info : Audio Coding 3
Commercial name : Dolby Digital
Codec ID : A_AC3
Duration : 1 h 37 min
Bit rate mode : Constant
Bit rate : 384 kb/s
Channel(s) : 6 channels
Channel layout : L R C LFE Ls Rs
Sampling rate : 48.0 kHz
Frame rate : 31.250 FPS (1536 SPF)
Compression mode : Lossy
Delay relative to video : -42 ms
Stream size : 269 MiB (21%)
Title : DUB 5.1ch
Language : Ukrainian
Service kind : Complete Main
Default : Yes
Forced : Yes

Audio #2
ID : 3
Format : AC-3
Format/Info : Audio Coding 3
Commercial name : Dolby Digital
Codec ID : A_AC3
Duration : 1 h 37 min
Bit rate mode : Constant
Bit rate : 192 kb/s
Channel(s) : 2 channels
Channel layout : L R
Sampling rate : 48.0 kHz
Frame rate : 31.250 FPS (1536 SPF)
Compression mode : Lossy
Delay relative to video : -42 ms
Stream size : 134 MiB (10%)
Title : Original
Language : Chinese
Service kind : Complete Main
Default : No
Forced : No

Menu
00:00:00.000 : en:Chapitre 1
00:09:50.000 : en:Chapitre 2
00:20:35.500 : en:Chapitre 3
00:31:07.208 : en:Chapitre 4
00:40:08.749 : en:Chapitre 5
00:51:20.874 : en:Chapitre 6
00:59:38.707 : en:Chapitre 7
01:09:53.998 : en:Chapitre 8
01:19:10.289 : en:Chapitre 9
01:28:52.996 : en:Chapitre 10
Скріншоти:


 Трекер:    Зареєстрований   

Завантажити / скачати мультфільм українською



відео для новачків



 Зареєстрований:   2020-06-14 18:56
 Розмір:   1.28 GB 
 Оцінка мультфільму:   9.5/10 (Голосів: 21)
   
Інші релізи
igor911 
Модератор відео


З нами з: 18.01.08
Востаннє: 30.10.20
Повідомлень: 15045

2019-03-08 12:38  
Треба вказати, що відеоряд з російською локалізацією та додати скріншот(-и) для наочності.
sergiyko.5 
Забанено
Забанено


З нами з: 25.02.16
Востаннє: 29.10.20
Повідомлень: 3651

2019-03-09 21:13  
Якість в цьому торенті краща за ріп anonymousa
igor911 
Модератор відео


З нами з: 18.01.08
Востаннє: 30.10.20
Повідомлень: 15045

2019-03-09 22:48  
sergiyko.5 написано:
Таємниця магазину іграшок

Правила оформлення відео-релізу написано:
Обов'язково вказувати назву фільму, яку йому дала студія озвучення

В даному випадку треба виправити українську назву на "Таємниця будинку іграшок". В назві теми можна додати альтернативну назву, скальковану в росіян (для покращення пошуку).

sergiyko.5 
Забанено
Забанено


З нами з: 25.02.16
Востаннє: 29.10.20
Повідомлень: 3651

2019-03-15 16:27  
igor911
вказав

sergiyko.5 
Забанено
Забанено


З нами з: 25.02.16
Востаннє: 29.10.20
Повідомлень: 3651

2020-06-14 18:56  
Торент оновлено.
Відео кращої якості, українська доріжка має 6 каналів, додано оригінальну доріжку.

Ваш часовий пояс: GMT + 2 Години

Нова тема   Відповісти