Таємниця будинку іграшок / Tea Pets (2017) 1080p Ukr/Chi

Нові коментарі

Нова тема   Відповісти
Автор Повідомлення
sergiyko.5 
Забанено
Забанено


З нами з: 25.02.16
Востаннє: 29.10.20
Повідомлень: 3648

2019-03-07 19:23  
Таємниця будинку іграшок / Tea Pets (2017) 1080p Ukr/Chi


Таємниця будинку іграшок / Tea Pets (2017) 1080p Ukr/Chi

Жанр: пригодницький, фентезі
Країна: Китай
Кінокомпанія: Light Chaser Animation Studios
Режисер: Гері Ван

Сюжет:
Історія симпатичних порцелянових іграшок, які живуть своїм цікавим таємним життям, поки їх не бачать сторонні. Але одного разу, через аварію на космічному кораблі, до крамнички іграшок потрапляє робот, і ось тут починаються справжні пригоди! На нових друзів чекають захопливі мандрівки, магічні таємниці і чатує небезпека, адже вони всі такі тендітні!..




Тривалість: 01:37:46
Якість:

Відео: кодек: розмір кадру: 1912 х 800 бітрейт: 4500 кб/с
Аудіо 1: мова: українська переклад: професійний дубльований | студія Tretyakoff production кодек: 5.1 ch бітрейт: 384 кб/с
Аудіо 2: мова: китайська переклад: оригінал кодек: 2.0 бітрейт: 192 кб/с
Про файл:
General
Unique ID : 222693868244036978636678311917280422977 (0xA7894767D7B1BED93F6EB9036C19EC41)
Complete name : D:\Documents\Torrents\MULTSER_2\Tea.Pets.2017.1080p..sergiyko.
Format :
Format version : Version 4
File size : 3.47 GiB
Duration : 1 h 37 min
Overall bit rate : 5 081 kb/s
Movie name : Tea Pets 2017 rip by sergiyko
Encoded date : UTC 2020-06-14 11:51:06
Writing application : v47.0.0 ('Black Flag') 64-bit
Writing library : libebml v1.3.10 + v1.5.2
Cover : Yes
Attachments : cover.jpeg / cover.jpg

Video
ID : 1
Format : AVC
Format/Info : Advanced Video Codec
Format profile : [email protected]
Format settings : CABAC / 5 Ref Frames
Format settings, CABAC : Yes
Format settings, Reference : 5 frames
Codec ID : V_MPEG4/ISO/AVC
Duration : 1 h 37 min
Bit rate : 4 501 kb/s
Width : 1 912 pixels
Height : 800 pixels
Display aspect ratio : 2.40:1
Frame rate mode : Constant
Frame rate : 24.000 FPS
Color space : YUV
Chroma subsampling : 4:2:0
Bit depth : 8 bits
Scan type : Progressive
Bits/(Pixel*Frame) : 0.123
Stream size : 3.07 GiB (89%)
Title : Tea Pets 2017
Language : English
Default : Yes
Forced : No
Color range : Limited
Color primaries : BT.709
Transfer characteristics : BT.709
Matrix coefficients : BT.709

Audio #1
ID : 2
Format : AC-3
Format/Info : Audio Coding 3
Commercial name : Dolby Digital
Codec ID : A_AC3
Duration : 1 h 37 min
Bit rate mode : Constant
Bit rate : 384 kb/s
Channel(s) : 6 channels
Channel layout : L R C LFE Ls Rs
Sampling rate : 48.0 kHz
Frame rate : 31.250 FPS (1536 SPF)
Compression mode : Lossy
Delay relative to video : -42 ms
Stream size : 269 MiB (8%)
Title : DUB 5.1ch
Language : Ukrainian
Service kind : Complete Main
Default : Yes
Forced : Yes

Audio #2
ID : 3
Format : AC-3
Format/Info : Audio Coding 3
Commercial name : Dolby Digital
Codec ID : A_AC3
Duration : 1 h 37 min
Bit rate mode : Constant
Bit rate : 192 kb/s
Channel(s) : 2 channels
Channel layout : L R
Sampling rate : 48.0 kHz
Frame rate : 31.250 FPS (1536 SPF)
Compression mode : Lossy
Delay relative to video : -42 ms
Stream size : 134 MiB (4%)
Title : Original
Language : Chinese
Service kind : Complete Main
Default : No
Forced : No

Menu
00:00:00.000 : en:Chapitre 1
00:09:50.000 : en:Chapitre 2
00:20:35.500 : en:Chapitre 3
00:31:07.208 : en:Chapitre 4
00:40:08.749 : en:Chapitre 5
00:51:20.874 : en:Chapitre 6
00:59:38.707 : en:Chapitre 7
01:09:53.998 : en:Chapitre 8
01:19:10.289 : en:Chapitre 9
01:28:52.996 : en:Chapitre 10
Скріншоти:


Джерело:


 Трекер:    Зареєстрований   

Завантажити / скачати мультфільм українською



відео для новачків



 Зареєстрований:   2020-06-14 18:57
 Розмір:   3.47 GB 
 Оцінка мультфільму:   9.1/10 (Голосів: 17)
   
Інші релізи
igor911 
Модератор відео


З нами з: 18.01.08
Востаннє: 26.02.21
Повідомлень: 15548

2019-03-08 12:40  
sergiyko.5, вкажи в описі, що відеоряд з російською локалізацією, додай скріншот з назвою для наочності. Також додай оригінальну доріжку.

Додано через 1 хвилину 10 секунд:

sergiyko.5 написано:
Країна: Китай, Light Chaser Animation Studios

це має бути в п. "Кінокомпанія"

Додано через 4 хвилини 10 секунд:
Скріншоти зі зразками рос.локалізації:




sergiyko.5 
Забанено
Забанено


З нами з: 25.02.16
Востаннє: 29.10.20
Повідомлень: 3648

2019-03-08 12:40  
igor911 написано:
Також додай оригінальну доріжку.

Ти про китайську? Де її взяти?

igor911 
Модератор відео


З нами з: 18.01.08
Востаннє: 26.02.21
Повідомлень: 15548

2019-03-08 12:43  
sergiyko.5 
Забанено
Забанено


З нами з: 25.02.16
Востаннє: 29.10.20
Повідомлень: 3648

2019-03-08 12:57  
igor911
Цитата:
Швидкість завантаження 10 кб/c , до кінця завантаження залишилось 6 тижнів.

igor911 
Модератор відео


З нами з: 18.01.08
Востаннє: 26.02.21
Повідомлень: 15548

2019-03-09 22:49  
sergiyko.5 написано:
Таємниця магазину іграшок

Правила оформлення відео-релізу написано:
Обов'язково вказувати назву фільму, яку йому дала студія озвучення

В даному випадку треба виправити українську назву на "Таємниця будинку іграшок". В назві теми можна додати альтернативну назву, скальковану в росіян (для покращення пошуку)

sergiyko.5 
Забанено
Забанено


З нами з: 25.02.16
Востаннє: 29.10.20
Повідомлень: 3648

2020-06-14 14:02  
Торент оновлено. Відео кращої якості, українська доріжка має 6 каналів, додано оригінальну доріжку.
-_-B_Е_N_D_E_R-_- 
Забанено
Забанено


З нами з: 03.03.20
Востаннє: 29.10.20
Повідомлень: 736

2020-06-14 17:32  
sergiyko.5 написано:
Торент оновлено.

не оновлено, а вкрадено

11FrYkT 
Модератор відео


З нами з: 20.02.11
Востаннє: 26.02.21
Повідомлень: 7152

2020-06-14 18:13  
sergiyko.5 , є розсинхрон оригіналу з відео, вирпавіть, і авц
sergiyko.5 
Забанено
Забанено


З нами з: 25.02.16
Востаннє: 29.10.20
Повідомлень: 3648

2020-06-14 19:00  
11FrYkT,
Виправив. Торент оновлено.

Ваш часовий пояс: GMT + 2 Години

Нова тема   Відповісти