Усі знають / Todos lo saben / Everybody Knows (2018) 1080p Ukr/Spa | Sub Eng

Нові коментарі

Нова тема   Відповісти
Автор Повідомлення
staf777 
Відео Гуртом - підтримка та поширення
Відео Гуртом - підтримка та поширення


З нами з: 16.11.16
Востаннє: 18.03.19
Повідомлень: 2196

2019-03-06 21:27  
Усі знають / Todos lo saben / Everybody Knows (2018) 1080p Ukr/Spa | Sub Eng

Усі знають / Todos lo saben / Everybody Knows (2018) 1080p Ukr/Spa | Sub Eng


Жанр: кримінальний, драма, детектив, трилер
Країна: Іспанія, Франція, Італія



Кінокомпанія: Memento Films Production, Morena Films, Lucky Red
Режисер: Асґар Фарахаді / Asghar Farhadi
Актори: Пенелопа Круз / Penélope Cruz, Хав'єр Бардем / Javier Bardem, Рікардо Дарін / Ricardo Darín, Едуард Фернандес / Eduard Fernández, Барбара Ленні / Bárbara Lennie, Інма Куеста / Inma Cuesta, Ельвіра Мінґес / Elvira Mínguez, Рамон Бареа / Ramón Barea, Карла Кампра / Carla Campra та інші.

Сюжет:
Після довгих років життя за межами свого маленького та такого рідного села недалеко від столиці Іспанії, міста Мадрида, Лаура разом зі своєю дочкою все-таки повернулася в те місце, де виросла. Причиною тому стало весілля її сестри Беї. На цю подію зібралося купа родичів, знайомі нової сім'ї. Лаура ж зустріла Пако – чоловіка, якого колись любила, і це було взаємно. Свято затьмарила страшна подія – хтось викрав дочку Лаури та зажадав викуп, інакше вони вб'ють дівчинку. Але хто ж це міг зробити? Мати майже впевнена, що без допомоги когось із близьких це викрадення неможливо, тому під підозрою всі. З Аргентини навіть прилетів чоловік Лаури Алехандро – алкоголік і нероба, але люблячий батько. Це розслідування приведе до відкриття старих секретів, які краще було би не чіпати...


Тривалість: 02:12:55
Якість:
Відео:
кодек:
розмір кадру: 1920x1036
бітрейт: 16300 кб/с

Аудіо # 1:
мова: українська
переклад: багатоголосий закадровий | DniproFilm
кодек: 5.1
бітрейт: 384 кб/с

Аудіо # 2:
мова: іспанська
переклад: оригінал
кодек: 5.1
бітрейт: 1509 кб/с

Субтитри:
мова: англійська
тип: програмні (м'які)
формат: *.srt
Info
General
Unique ID : 61141090188154009198590994379128773368 (0x2DFF587C084D24B7803D3083B5311AF8)
Complete name : S:\» HD українською » Фільми в HD\Драма\Everybody Knows (2018) 1080p [UKR_SPA] [Hurtom].
Format :
Format version : Version 4
File size : 16.9 GiB
Duration : 2 h 12 min
Overall bit rate : 18.2 Mb/s
Movie name : Everybody Knows (2018) 1080p [UKR_SPA] [Hurtom]
Encoded date : UTC 2019-03-07 12:14:10
Writing application : v30.1.0 ('Forever And More') 64-bit
Writing library : libebml v1.3.6 + v1.4.9
Cover : Yes
Attachments : cover.jpg

Video
ID : 1
Format : AVC
Format/Info : Advanced Video Codec
Format profile : [email protected]
Format settings : CABAC / 4 Ref Frames
Format settings, CABAC : Yes
Format settings, ReFrames : 4 frames
Codec ID : V_MPEG4/ISO/AVC
Duration : 2 h 12 min
Bit rate : 16.3 Mb/s
Width : 1 920 pixels
Height : 1 036 pixels
Display aspect ratio : 1.85:1
Frame rate mode : Constant
Frame rate : 23.976 (24000/1001) FPS
Color space : YUV
Chroma subsampling : 4:2:0
Bit depth : 8 bits
Scan type : Progressive
Bits/(Pixel*Frame) : 0.342
Stream size : 15.1 GiB (90%)
Title : [email protected]
Writing library : core 148 r2705+45 bdacf7a 7mod [[email protected] X86_64]
Encoding settings : cabac=1 / ref=4 / deblock=1:-3:-3 / analyse=0x3:0x113 / me=umh / subme=11 / psy=1 / fade_compensate=0.00 / psy_rd=1.00:0.05 / mixed_ref=1 / me_range=32 / chroma_me=1 / trellis=2 / 8x8dct=1 / cqm=0 / deadzone=21,11 / fast_pskip=0 / chroma_qp_offset=-2 / threads=16 / lookahead_threads=2 / sliced_threads=0 / nr=0 / decimate=1 / interlaced=0 / bluray_compat=0 / constrained_intra=0 / fgo=0 / bframes=8 / b_pyramid=2 / b_adapt=2 / b_bias=0 / direct=3 / weightb=1 / open_gop=0 / weightp=2 / keyint=250 / keyint_min=23 / scenecut=40 / intra_refresh=0 / rc_lookahead=40 / rc=crf / mbtree=0 / crf=18.0000 / qcomp=0.60 / qpmin=0:0:0 / qpmax=69:69:69 / qpstep=4 / vbv_maxrate=50000 / vbv_bufsize=40000 / crf_max=0.0 / nal_hrd=none / filler=0 / ip_ratio=1.40 / pb_ratio=1.30 / aq=4:0.90 / aq-sensitivity=10.00 / aq-factor=1.00:1.00:1.00 / aq2=0 / aq3=0
Language : Spanish
Default : Yes
Forced : No

Audio #1
ID : 2
Format : AC-3
Format/Info : Audio Coding 3
Commercial name : Dolby Digital
Codec ID : A_AC3
Duration : 2 h 12 min
Bit rate mode : Constant
Bit rate : 384 kb/s
Channel(s) : 6 channels
Channel layout : L R C LFE Ls Rs
Sampling rate : 48.0 kHz
Frame rate : 31.250 FPS (1536 SPF)
Bit depth : 16 bits
Compression mode : Lossy
Stream size : 365 MiB (2%)
Language : Ukrainian
Service kind : Complete Main
Default : Yes
Forced : Yes

Audio #2
ID : 3
Format :
Format/Info : Digital Theater Systems
Codec ID : A_DTS
Duration : 2 h 12 min
Bit rate mode : Constant
Bit rate : 1 509 kb/s
Channel(s) : 6 channels
Channel layout : C L R Ls Rs LFE
Sampling rate : 48.0 kHz
Frame rate : 93.750 FPS (512 SPF)
Bit depth : 24 bits
Compression mode : Lossy
Stream size : 1.40 GiB (8%)
Title : Spanish
Language : Spanish
Default : No
Forced : No

Text
ID : 4
Format : UTF-8
Codec ID : S_TEXT/UTF8
Codec ID/Info : UTF-8 Plain Text
Duration : 2 h 5 min
Bit rate : 34 b/s
Count of elements : 1348
Stream size : 32.1 KiB (0%)
Language : English
Default : No
Forced : No

Menu
00:00:00.000 : en:00:00:00.000
00:09:20.726 : en:00:09:20.726
00:17:16.952 : en:00:17:16.952
00:27:02.037 : en:00:27:02.037
00:34:37.158 : en:00:34:37.158
00:43:52.421 : en:00:43:52.421
00:50:56.970 : en:00:50:56.970
00:57:58.349 : en:00:57:58.349
01:05:41.020 : en:01:05:41.020
01:16:11.817 : en:01:16:11.817
01:24:35.695 : en:01:24:35.695
01:32:48.354 : en:01:32:48.354
01:41:46.767 : en:01:41:46.767
01:52:12.725 : en:01:52:12.725
02:01:43.629 : en:02:01:43.629
02:08:44.341 : en:02:08:44.341



Подяка -Star-Lord- за допомогу у створенні реліза.
Джерело: &
Особиста оцінка: 8 - мені сподобалося
Усі знають / Todos lo saben / Everybody Knows (2018) 1080p Ukr/Spa | Sub Eng Усі знають / Todos lo saben / Everybody Knows (2018) 1080p Ukr/Spa | Sub Eng


Авторський реліз (завантажувати можна без реєстрації)
 Трекер:    Зареєстрований   

Завантажити / скачати фільм українською



відео для новачків



 Зареєстрований:   2019-03-08 07:14
 Розмір:   16.9 GB 
 Оцінка фільму:   7.8/10 (Голосів: 6)
   
bot 
робот


З нами з: 30.09.07
Востаннє: 26.05.05
Повідомлень: 20881

2019-03-06 21:47  
Тему перенесено з Фільми в HD до форуму Анонси релізів


staf777

bot 
робот


З нами з: 30.09.07
Востаннє: 26.05.05
Повідомлень: 20881

2019-03-08 07:13  
Тему перенесено з Анонси релізів до форуму Фільми в HD


staf777

Ваш часовий пояс: GMT + 2 Години

Нова тема   Відповісти