Зелена Книга / Green Book (2018) Remux 1080p Ukr/Eng | Sub Ukr/Eng

Нові коментарі

Нова тема   Відповісти
Автор Повідомлення
staf777 
Відео Гуртом - підтримка та поширення
Відео Гуртом - підтримка та поширення


З нами з: 16.11.16
Востаннє: 21.04.19
Повідомлень: 2280

2019-03-06 17:45  
Зелена Книга / Green Book (2018) Remux 1080p Ukr/Eng | Sub Ukr/Eng


Зелена Книга / Green Book (2018) Remux 1080p Ukr/Eng | Sub Ukr/Eng


Жанр: біографічний, драма, комедія
Країна: США

3 Оскара, 3 Золотих глобуса, премія Британської кіноакадемії
Основні нагороди - детальніше:


Оскар, 2019 рік
Переможець (3):
Найкращий фільм
Найкраща другорядна чоловіча роль (Магершала Алі)
Найкращий сценарій



Золотий глобус, 2019 рік
Переможець (3):
Найкращий фільм (комедія чи мюзикл)
Найкраща другорядна чоловіча роль (Магершала Алі)
Найкращий сценарій



Британська академія (BAFTA), 2019 рік
Переможець (1):
Найкраща другорядна чоловіча роль (Магершала Алі)


Кінокомпанія: Participant Media, DreamWorks, Amblin Partners, Innisfree Pictures, Wessler Entertainment
Режисер: Пітер Фареллі / Peter Farrelly
Актори: Вігго Мортенсен / Viggo Mortensen, Магершала Алі / Mahershala Ali, Лінда Карделліні / Linda Cardellini, Себастьян Маніскалко / Sebastian Maniscalco, Дімітар Марінов / Dimiter D. Marinov, Пі Джей Бірн / P.J. Byrne, Нік Валлелонга / Nick Vallelonga та інші

Сюжет:
Історія, заснована на реальній дружбі. У 1962 році простого викидайла італійського походження Тоні Ліпа (Вігго Мортенсен) наймають водієм на час туру одного з найкращих піаністів світу, афроамериканського джазового піаніста Дона Ширлі (Магершала Алі), півднем США, де панують расистські погляди. Дорогою вони користуються "Зеленою книгою, що містить інформацію про безпечні місця для кольорових. Ця подорож відкриє очі двом різним героям на світ та змінить їх життя.
Офіційний український трейлер:

Рейтинг MPAA: PG-13 - дітям до 13 років перегляд не бажаний
Вікова категорія: 12+

Тривалість: 02:10:04
Якість: Remux 1080p

Відео:
кодек:
розмір кадру: 1920x1080
бітрейт: 29,7 Мб/с

Аудіо # 1:
мова: українська
переклад: професійний дубльований
кодек: 2.0 (стерео)
бітрейт: 192 кб/с

Аудіо # 2:
мова: англійська
переклад: оригінал
кодек: TrueHD 7.1
бітрейт: 3783 кб/с

Субтитри # 1:
мова: українська
тип: програмні (м'які)
формат: *.srt
переклад з оригіналу: kinovar

Субтитри # 2:
мова: англійська
тип: програмні (м'які)
формат: *.srt

Субтитри # 3:
мова: англійська (форсовані, на декілька реплік італійською)
тип: вбудовані (жорсткі)

Збережено оригінальні розділи, як на Bly-ray
Info
Код:

General
Unique ID                   : 318166032620470754840466804790442718349 (0xEF5C8C880E97957E6A64E62E3B29F48D)
Complete name               : S:\» HD українською » Фільми в HD\Драма\Green Book (2018) Remux 1080p [UKR_ENG] [Hurtom].
Format                      :
Format version              : Version 4
File size                   : 30.7 GiB
Duration                    : 2 h 10 min
Overall bit rate mode       : Variable
Overall bit rate            : 33.7 Mb/s
Movie name                  : Green Book (2018) Remux 1080p [UKR_ENG] [Hurtom]
Encoded date                : UTC 2019-03-06 15:58:53
Writing application         : v30.1.0 ('Forever And More') 64-bit
Writing library             : libebml v1.3.6 + v1.4.9
Cover                       : Yes
Attachments                 : cover.jpg

Video
ID                          : 1
Format                      : AVC
Format/Info                 : Advanced Video Codec
Format profile              : [email protected]
Format settings             : CABAC / 2 Ref Frames
Format settings, CABAC      : Yes
Format settings, ReFrames   : 2 frames
Codec ID                    : V_MPEG4/ISO/AVC
Duration                    : 2 h 10 min
Bit rate mode               : Variable
Bit rate                    : 29.7 Mb/s
Width                       : 1 920 pixels
Height                      : 1 080 pixels
Display aspect ratio        : 16:9
Frame rate mode             : Constant
Frame rate                  : 23.976 (24000/1001) FPS
Color space                 : YUV
Chroma subsampling          : 4:2:0
Bit depth                   : 8 bits
Scan type                   : Progressive
Bits/(Pixel*Frame)          : 0.597
Stream size                 : 27.0 GiB (88%)
Language                    : English
Default                     : Yes
Forced                      : No

Audio #1
ID                          : 2
Format                      : AC-3
Format/Info                 : Audio Coding 3
Commercial name             : Dolby Digital
Codec ID                    : A_AC3
Duration                    : 2 h 10 min
Bit rate mode               : Constant
Bit rate                    : 192 kb/s
Channel(s)                  : 2 channels
Channel layout              : L R
Sampling rate               : 48.0 kHz
Frame rate                  : 31.250 FPS (1536 SPF)
Bit depth                   : 16 bits
Compression mode            : Lossy
Stream size                 : 179 MiB (1%)
Language                    : Ukrainian
Service kind                : Complete Main
Default                     : Yes
Forced                      : Yes

Audio #2
ID                          : 3
Format                      : MLP FBA 16-ch
Format/Info                 : Meridian Lossless Packing FBA with 16-channel presentation
Commercial name             : Dolby TrueHD with Dolby Atmos
Codec ID                    : A_TRUEHD
Duration                    : 2 h 10 min
Bit rate mode               : Variable
Bit rate                    : 3 783 kb/s
Maximum bit rate            : 7 086 kb/s
Channel(s)                  : 8 channels
Channel layout              : L R C LFE Ls Rs Lb Rb
Sampling rate               : 48.0 kHz
Frame rate                  : 1 200.000 FPS (40 SPF)
Compression mode            : Lossless
Stream size                 : 3.44 GiB (11%)
Title                       : Original
Language                    : English
Default                     : No
Forced                      : No
Number of dynamic objects   : 11
Bed channel count           : 1 channel
Bed channel configuration   : LFE

Text #1
ID                          : 4
Format                      : UTF-8
Codec ID                    : S_TEXT/UTF8
Codec ID/Info               : UTF-8 Plain Text
Duration                    : 2 h 2 min
Bit rate                    : 95 b/s
Count of elements           : 1516
Stream size                 : 85.9 KiB (0%)
Language                    : Ukrainian
Default                     : No
Forced                      : No

Text #2
ID                          : 5
Format                      : UTF-8
Codec ID                    : S_TEXT/UTF8
Codec ID/Info               : UTF-8 Plain Text
Duration                    : 2 h 9 min
Bit rate                    : 69 b/s
Count of elements           : 2389
Stream size                 : 66.4 KiB (0%)
Language                    : English
Default                     : No
Forced                      : No

Menu
00:00:00.000                : en:00:00:00.000
00:05:43.009                : en:00:05:43.009
00:11:50.043                : en:00:11:50.043
00:18:17.805                : en:00:18:17.805
00:23:46.675                : en:00:23:46.675
00:28:37.382                : en:00:28:37.382
00:34:38.785                : en:00:34:38.785
00:41:13.304                : en:00:41:13.304
00:46:44.593                : en:00:46:44.593
00:54:19.173                : en:00:54:19.173
01:02:42.342                : en:01:02:42.342
01:10:42.655                : en:01:10:42.655
01:16:16.155                : en:01:16:16.155
01:24:30.274                : en:01:24:30.274
01:30:37.724                : en:01:30:37.724
01:36:53.266                : en:01:36:53.266
01:44:56.081                : en:01:44:56.081
01:51:12.124                : en:01:51:12.124
01:54:38.872                : en:01:54:38.872
02:02:25.505                : en:02:02:25.505


Підтримати купівлю інших фільмів можна тут.


Подяка AngryBirdsUA за доріжку та igor911 за допомогу у створенні реліза.
Джерело: &


Золотий реліз (завантажене не впливає на рейтинг)
 Трекер:    Зареєстрований   

Завантажити / скачати фільм українською



відео для новачків



 Зареєстрований:   2019-03-06 19:39
 Розмір:   30.66 GB 
 Оцінка фільму:   9.5/10 (Голосів: 39)
   
Інші релізи
   Зелена Книга / Green Book (2018) 1080p H.265 Ukr/Eng | Sub Ukr/Eng -Star-Lord-  42 / 0   7.19 GB   2019-03-10 23:54 
   Зелена Книга / Green Book (2018) Ukr/Eng | Sub Ukr/Eng igor911  107 / 0   2.36 GB   2019-03-06 22:43 
   Зелена Книга / Green Book (2018) uafilm.tv  80 / 0   1.46 GB   2019-03-06 22:13 
   Зелена Книга / Green Book (2018) 1080p Ukr/Eng | Sub Ukr/Eng igor911  83 / 0   16.09 GB   2019-03-06 20:51 
   Зелена Книга / Green Book (2018) 720p Ukr/Eng | Sub Ukr/Eng igor911  114 / 2   6.94 GB   2019-03-06 17:37 
   Зелена Книга / Green Book (2018) AVC Ukr/Eng | Sub Ukr/Eng 11FrYkT  224 / 2   2.35 GB   2019-03-06 17:25 
   Зелена Книга / Green Book (2018) Eng | sub Ukr kinovar  39 / 0   1.42 GB   2019-02-06 10:00 
krust 
Новенький


З нами з: 17.08.08
Востаннє: 21.04.19
Повідомлень: 6

2019-03-06 19:25  
хороше кіно, тільки нігеропедотема вже набридати прочинає....
bot 
робот


З нами з: 30.09.07
Востаннє: 26.05.05
Повідомлень: 21227

2019-03-06 19:38  
Тему перенесено з Анонси релізів до форуму Фільми в HD


staf777

Serjiodoc 
Новенький


З нами з: 01.11.09
Востаннє: 14.04.19
Повідомлень: 15

2019-03-08 23:16  
найкращий фільм. супер!
O_omarella! 
Свій


З нами з: 14.06.13
Востаннє: 13.04.19
Повідомлень: 116

2019-03-10 20:05  
krust написано:
хороше кіно, тільки нігеропедотема вже набридати прочинає....

100%! Хотів залишити схожий комент!

Neolo 
Новенький


З нами з: 13.11.10
Востаннє: 13.04.19
Повідомлень: 18

2019-03-12 08:29  
Цитата:

krust написано:
хороше кіно, тільки нігеропедотема вже набридати прочинає....

100%! Хотів залишити схожий комент!


Ой, та не заздрiть.Норм кiно i тема актуальна.

sandman 
VIP


З нами з: 12.08.12
Востаннє: 21.04.19
Повідомлень: 257

2019-03-12 17:28  
Чудовий фільм, дякую.
myru22 
Частий відвідувач


З нами з: 27.11.16
Востаннє: 21.04.19
Повідомлень: 37

2019-03-12 17:59  
фільм настільки простий, що дальше нема куди вже. в кінці чекав, що в негритянський бар прийдуть ті клієнти з дорогого ресторану, що б послухати музику піаніста. і всі танцювали разом. насправді кіно дуже хороше. но простецьке.
ngxwinger 
Частий відвідувач


З нами з: 19.01.14
Востаннє: 21.04.19
Повідомлень: 32

2019-03-13 00:38  
В цілому дійсно фільм досить простий, але приємний настрій після перегляду залишив. Вігго Мортенсен все ж досить різноплановий актор, хоча Капітан Фантастик місцями був так собі, але після таких фільмів знову пригадую, що він не лише Арагорна може грати))
FisherCS 
Новенький


З нами з: 13.01.13
Востаннє: 13.04.19
Повідомлень: 13

2019-03-27 21:51  
Така гарна картинка, а таке 2.0 (стерео) аудіо...
toloka.to 
Новенький


З нами з: 03.09.15
Востаннє: 17.04.19
Повідомлень: 6

2019-03-30 16:55  
кожного року стабільно випускають фільми про вигадане і занадто перебільшене ставлення білих до нігерів безліч років тому, наразі існує реальна проблема по відношенню нігерів до білих людей, а не навпаки... краще б знімали фільми про існуючі проблеми, а не про вигадані, які вже не існують десятиріччями...
Ваш часовий пояс: GMT + 2 Години

Нова тема   Відповісти