Смертні машини / Mortal Engines (2018) 1080p Ukr/Eng | Sub Eng [Open Matte]

Нові коментарі

Нова тема   Відповісти
Автор Повідомлення
Anonymous 







2019-03-06 16:18  
Смертні машини / Mortal Engines (2018) 1080p Ukr/Eng | Sub Eng [Open Matte]

Смертні машини / Mortal Engines (2018) 1080p Ukr/Eng | Sub Eng [Open Matte]
Альтернативні постери:

Смертні машини / Mortal Engines (2018) 1080p Ukr/Eng | Sub Eng [Open Matte]

Смертні машини / Mortal Engines (2018) 1080p Ukr/Eng | Sub Eng [Open Matte]


Жанр: фантастика, фентезі, екшн, пригодницький, трилер
Країна: США, Нова Зеландія



Кінокомпанія: Universal, Media Rights Capital, Scholastic Productions, Silvertongue Films
Режисер: Крістіан Ріверс, Пітер Джексон
Актори: Гера Хілмар, Г'юго Вівінг, Джихе, Роберт Шіен, Стівен Ленг, Лейла Джордж, Френкі Адамс, Карен Пісторіус, Ендрю Лііз, Колін Семон

Сюжет:
Пройшли тисячоліття після того, як світ настиг апокаліпсис. Людство адаптувалося і тепер живе за новими правилами. Гігантські рухомі мегаполіси розсікають пустищі і поглинають маленькі міста заради ресурсів. Том Нетсуорті з нижнього рівня великого Лондона опиняється у смертельній небезпеці, коли на його шляху з'являється бунтарка Естер Шоу, що ховається від закону. Вони не повинні були зустрітися, але їм судилося змінити майбутнє.


Тривалість: 02:08:21
Якість: 1080p [Open Matte, Amazon version]

Відео:
кодек:
розмір кадру: 1920 х 1080
бітрейт: 8326 кб/с

Аудіо # 1:
мова: українська
переклад: професійний дубльований | студія LeDoyen
кодек: 2.0 [стерео]
бітрейт: 192 кб/с

Аудіо # 2:
мова: англійська
переклад: оригінал
кодек: E- 5.1
бітрейт: 640 кб/с

Субтитри # 1:
мова: українська (форсовані)
тип: програмні (м'які)
формат: *.srt

Субтитри # 2:
мова: англійська (SDH)
тип: програмні (м'які)
формат: *.srt

Збережено оригінальні розділи
Info
Код:

Complete name               : Mortal Engines [Open Matte] (2018) [Ukr,Eng sub.Eng] AMZN 1080p [Hurtom].
Format                      :
Format version              : Version 4
File size                   : 8.22 GiB
Duration                    : 2 h 8 min
Overall bit rate            : 9 160 kb/s
Movie name                  : Смертні машини / Mortal Engines [Open Matte] (2018) [Ukr,Eng sub.Eng] AMZN 1080p [Hurtom]
Encoded date                : UTC 2019-03-06 16:27:37
Writing application         : v31.0.0 ('Dolores In A Shoestand') 64-bit
Writing library             : libebml v1.3.6 + v1.4.9
Cover                       : Yes
Attachments                 : cover.jpg

Video
ID                          : 1
Format                      : AVC
Format/Info                 : Advanced Video Codec
Format profile              : [email protected]
Format settings             : CABAC / 4 Ref Frames
Format settings, CABAC      : Yes
Format settings, ReFrames   : 4 frames
Codec ID                    : V_MPEG4/ISO/AVC
Duration                    : 2 h 8 min
Bit rate mode               : Constant
Bit rate                    : 8 326 kb/s
Nominal bit rate            : 10 000 kb/s
Width                       : 1 920 pixels
Height                      : 1 080 pixels
Display aspect ratio        : 16:9
Frame rate mode             : Constant
Frame rate                  : 23.976 (24000/1001) FPS
Color space                 : YUV
Chroma subsampling          : 4:2:0
Bit depth                   : 8 bits
Scan type                   : Progressive
Bits/(Pixel*Frame)          : 0.167
Stream size                 : 7.47 GiB (91%)
Title                       : Смертні машини / Mortal Engines (2018) 1080p AMZN [Open Matte]
Language                    : English
Default                     : Yes
Forced                      : No
Color range                 : Limited
Color primaries             : BT.709
Transfer characteristics    : BT.709
Matrix coefficients         : BT.709

Audio #1
ID                          : 2
Format                      : AC-3
Format/Info                 : Audio Coding 3
Commercial name             : Dolby Digital
Codec ID                    : A_AC3
Duration                    : 2 h 8 min
Bit rate mode               : Constant
Bit rate                    : 192 kb/s
Channel(s)                  : 2 channels
Channel layout              : L R
Sampling rate               : 48.0 kHz
Frame rate                  : 31.250 FPS (1536 SPF)
Bit depth                   : 16 bits
Compression mode            : Lossy
Delay relative to video     : 1 s 0 ms
Stream size                 : 176 MiB (2%)
Title                       : Dub [LeDoyen], 2.0 [stereo] 192 Kbps
Language                    : Ukrainian
Service kind                : Complete Main
Default                     : Yes
Forced                      : Yes

Audio #2
ID                          : 3
Format                      : E-AC-3
Format/Info                 : Enhanced AC-3
Commercial name             : Dolby Digital Plus
Codec ID                    : A_EAC3
Duration                    : 2 h 8 min
Bit rate mode               : Constant
Bit rate                    : 640 kb/s
Channel(s)                  : 6 channels
Channel layout              : L R C LFE Ls Rs
Sampling rate               : 48.0 kHz
Frame rate                  : 31.250 FPS (1536 SPF)
Compression mode            : Lossy
Stream size                 : 588 MiB (7%)
Title                       : Original, E- 5.1 640 Kbps
Language                    : English
Service kind                : Complete Main
Default                     : No
Forced                      : No

Text #1
ID                          : 4
Format                      : UTF-8
Codec ID                    : S_TEXT/UTF8
Codec ID/Info               : UTF-8 Plain Text
Duration                    : 1 h 33 min
Bit rate                    : 0 b/s
Count of elements           : 10
Stream size                 : 396 Bytes (0%)
Title                       : Ukr Forced
Language                    : Ukrainian
Default                     : Yes
Forced                      : Yes

Text #2
ID                          : 5
Format                      : UTF-8
Codec ID                    : S_TEXT/UTF8
Codec ID/Info               : UTF-8 Plain Text
Duration                    : 2 h 8 min
Bit rate                    : 47 b/s
Count of elements           : 1851
Stream size                 : 44.4 KiB (0%)
Title                       : Eng SDH
Language                    : English
Default                     : No
Forced                      : No

Menu
00:00:00.000                : en:1
00:09:25.398                : en:2
00:16:14.306                : en:3
00:24:21.625                : en:4
00:31:25.589                : en:5
00:35:54.065                : en:6
00:41:28.816                : en:7
00:44:54.812                : en:8
00:50:17.801                : en:9
00:54:22.170                : en:10
01:00:52.392                : en:11
01:07:13.064                : en:12
01:11:13.846                : en:13
01:17:38.730                : en:14
01:25:26.614                : en:15
01:33:31.389                : en:16
01:39:29.538                : en:17
01:47:59.255                : en:18
01:52:12.548                : en:19
01:58:34.513                : en:20
Скріншоти




Підтримати купівлю інших фільмів можна тут.

Подяка AngryBirdsUA за доріжку.

Джерело:


 Трекер:    Зареєстрований   

Завантажити / скачати фільм українською



відео для новачків



 Зареєстрований:   2019-03-06 18:48
 Розмір:   8.22 GB 
 Оцінка фільму:   8.8/10 (Голосів: 24)
 ЗАЛИШАЙТЕСЬ ЯКОМОГА ДОВШЕ НА РОЗДАЧІ! ЗАВАНТАЖИВ САМ - ДАЙ ЗАВАНТАЖИТИ ІНШИМ!
   
Інші релізи
Koful 
VIP


З нами з: 05.12.16
Востаннє: 05.12.19
Повідомлень: 281

2019-03-06 17:29  
якщо це той реліз з амазона що зараз усюди роздається тільки іншою мовою то це не "опен мейт" а обрізок
Anonymous 







2019-03-06 18:49  
Реліз готовий до завантаження.

Koful написано:
а обрізок

не обрізок, чесний опенмейт: http://screenshotcomparison.com/comparison/130495

Nymizmat 
Новенький


З нами з: 09.11.14
Востаннє: 03.12.19
Повідомлень: 21

2019-03-06 18:49  
Сюжет як такий відсутній повністю. Безліч не логічних моментів. Особисто мені не сподобався.
mystakaev 
Новенький


З нами з: 04.07.10
Востаннє: 05.12.19
Повідомлень: 18

2019-03-08 02:31  
яка нудь, не додивився.
hatak 
Свій


З нами з: 30.04.15
Востаннє: 06.12.19
Повідомлень: 123

2019-03-08 03:38  
Пройшла година після перегляду — так одразу і не згадаєш про що фільм... Особисто мене вразила і захопила сама ідея “пересувного автономного міста”. Чомусь ніколи про таке і не задумувався — а тут так яскраво реалізували. Взагалі комп’ютерна графіка заслуговує найвищих похвал: дуууже круто знято (намальовано). Одразу в очі кидається висока деталізація зображення: на постапокаліптичних машинах дуже багато запчастин і мотлоху — і він відрисований (накреслений) до дрібниць. Приємно дивитись. Також, класно зображена повітряна гавань. Заради візуальних ефектів варто переглянути. Схоже, що весь бюджет пішов на комп’ютерну графіку, а на сюжет вже в когось позичали... ЩО головні герої роблять і для ЧОГО — перестав задумуватись вже хвилині на двадцятій. Окрім логіки причинно-наслідкових зв’язків ще варто забути про закони фізики і особливо про “збереження енергії”. Так, Гера Хілмар — гарна навіть з специфічним гримом на обличчі і грає переконливо. Дивитись можна один раз в гарній якості на великій діагоналі.
Update:
хоча я так і не збагнув чому:
"Mortal Kombat" = "Смертельна битва" а
"Mortal Engines" = "Смертні машини", але то таке...

Славік Христенко 
Новенький


З нами з: 29.03.15
Востаннє: 30.09.19
Повідомлень: 1

2019-03-14 11:57  
Рідкісне лайно. Творці фільму просто вирішили заробити на фанатах фільмів Пітера Джексона((
VelArt-AVG 
Новенький


З нами з: 06.09.15
Востаннє: 17.11.19
Повідомлень: 19

2019-03-17 09:09  
Anonymous написано:

Реліз готовий до завантаження.

Koful написано:
а обрізок

не обрізок, чесний опенмейт: http://screenshotcomparison.com/comparison/130495

Нажаль - це обрізок.
http://screenshotcomparison.com/comparison/132230

Але у деяких сценах таки є більша наповненість кадру.
http://screenshotcomparison.com/comparison/132231

Мені здається що Амазон робили свою вебку з використанням IMAX сцен, і саме вони є більш наповнені. Але решту фільму кастровано пообіч.

Dert 
Частий відвідувач


З нами з: 01.01.09
Востаннє: 29.11.19
Повідомлень: 36

2019-03-18 22:49  
Непоганий фільм, кастрате

Додано через 2 хвилини 22 секунди:

hatak
Цитата:
на великій діагоналі

сідаєш перед звичайним монітором ось тобі і діагональ мажорику

Nahalist 
Поважний учасник


З нами з: 12.12.13
Востаннє: 03.12.19
Повідомлень: 212

2019-06-02 13:20  
що ж, глянем, що це за open matte Happy
Blanove 
Свій


З нами з: 01.05.15
Востаннє: 04.12.19
Повідомлень: 127

2019-06-08 23:30  
Nahalist написано:
що ж, глянем, що це за open matte Happy

Написали вище, що це обрізок зі вставками IMAX. Краще б загібридили, щоб 2.35 переходило в 16:9 і потім знову в 2.35. А то вирішили, щоб взагалі не було чорних полос, а для цього довелось 2.35 обрізать з боків, фігово Sad (1)
А ХТО в курсі - яка загальна тривалість IMAX'ових сцен?

Luzohid 
Свій


З нами з: 14.09.15
Востаннє: 24.11.19
Повідомлень: 58

2019-08-07 15:29  
VelArt-AVG написано:
Але у деяких сценах таки є більша наповненість кадру. http://screenshotcomparison.com/comparison/132231

нажаль ваше посилання не працює Sad (1)

Nahalist 
Поважний учасник


З нами з: 12.12.13
Востаннє: 03.12.19
Повідомлень: 212

2019-08-09 21:29  
Luzohid, ага, я теж не встиг подивитися цей лінк поки він був живий Sad (1)
Ваш часовий пояс: GMT + 2 Години

Нова тема   Відповісти