Повернення до Бургундії / Ce qui nous lie (2017) 720p Ukr/Fre

Нові коментарі

Нова тема   Відповісти
Автор Повідомлення
staf777 
Відео Гуртом - підтримка та поширення
Відео Гуртом - підтримка та поширення


З нами з: 16.11.16
Востаннє: 18.10.19
Повідомлень: 2986

2019-03-06 10:40  
Повернення до Бургундії / Ce qui nous lie (2017) 720p Ukr/Fre

Повернення до Бургундії / Ce qui nous lie (2017) 720p Ukr/Fre


Жанр: комедія, драма
Країна: Франція



Кінокомпанія: Ce Qui Me Meut Motion Pictures, StudioCanal, France 2 Cinéma
Режисер: Седрік Клапіш
Актори: Піо Мармай, Ана Жирардо, Марія Вальверде, Жан-Марі Вінлін, Ерік Каравака, Седрік Клапіш та інші.

Сюжет:
Троє спадкоємців після смерті батька повинні відновити маєток та повернути виноградникам колишню славу. Вони будуть сваритися і миритися, збирати виноград та робити вино. І звичайно ж пити, насолоджуючись кожною краплею.


Тривалість: 01:53:25
Якість: 720p
Відео:
кодек:
розмір кадру: 1280x536
бітрейт: 5380 кб/с

Аудіо # 1:
мова: українська
переклад: багатоголосий закадровий
кодек: 2.0
бітрейт: 192 кб/с

Аудіо # 2:
мова: французька
переклад: оригінал
кодек: 5.1
бітрейт: 384 кб/с

Субтитри: [Forced]
мова: французька
тип: програмні (м'які)
формат: *.srt
MI
General
Unique ID : 112525453293267794549951923927495037685 (0x54A79D2F20145C0D107B7C50E83D52F5)
Complete name : S:\» HD українською » Фільми в HD\Драма\Ce qui nous lie (2017) 720p [UKR][FRE][Hurtom].
Format :
Format version : Version 4
File size : 4.72 GiB
Duration : 1 h 53 min
Overall bit rate : 5 957 kb/s
Movie name : Ce qui nous lie (2017) 720p [UKR][FRE][Hurtom]
Encoded date : UTC 2019-03-06 12:55:01
Writing application : v30.1.0 ('Forever And More') 64-bit
Writing library : libebml v1.3.6 + v1.4.9
Cover : Yes
Attachments : cover.jpg

Video
ID : 1
Format : AVC
Format/Info : Advanced Video Codec
Format profile : [email protected]
Format settings : CABAC / 5 Ref Frames
Format settings, CABAC : Yes
Format settings, ReFrames : 5 frames
Codec ID : V_MPEG4/ISO/AVC
Duration : 1 h 53 min
Bit rate : 5 380 kb/s
Width : 1 280 pixels
Height : 536 pixels
Display aspect ratio : 2.40:1
Frame rate mode : Constant
Frame rate : 24.000 FPS
Color space : YUV
Chroma subsampling : 4:2:0
Bit depth : 8 bits
Scan type : Progressive
Bits/(Pixel*Frame) : 0.327
Stream size : 4.26 GiB (90%)
Title : ce.qui.nous.lie.2017.french.720p.bluray.-lost
Writing library : core 152 r2851 ba24899
Encoding settings : cabac=1 / ref=5 / deblock=1:0:0 / analyse=0x3:0x113 / me=umh / subme=8 / psy=1 / psy_rd=1.00:0.00 / mixed_ref=1 / me_range=16 / chroma_me=1 / trellis=1 / 8x8dct=1 / cqm=0 / deadzone=21,11 / fast_pskip=1 / chroma_qp_offset=-2 / threads=17 / lookahead_threads=2 / sliced_threads=0 / nr=0 / decimate=1 / interlaced=0 / bluray_compat=0 / constrained_intra=0 / bframes=3 / b_pyramid=2 / b_adapt=2 / b_bias=0 / direct=3 / weightb=1 / open_gop=0 / weightp=2 / keyint=240 / keyint_min=24 / scenecut=40 / intra_refresh=0 / rc_lookahead=50 / rc=2pass / mbtree=1 / bitrate=5380 / ratetol=1.0 / qcomp=0.60 / qpmin=0 / qpmax=69 / qpstep=4 / cplxblur=20.0 / qblur=0.5 / ip_ratio=1.40 / aq=1:1.00
Language : English
Default : Yes
Forced : No

Audio #1
ID : 2
Format : AC-3
Format/Info : Audio Coding 3
Commercial name : Dolby Digital
Codec ID : A_AC3
Duration : 1 h 53 min
Bit rate mode : Constant
Bit rate : 192 kb/s
Channel(s) : 2 channels
Channel layout : L R
Sampling rate : 48.0 kHz
Frame rate : 31.250 FPS (1536 SPF)
Bit depth : 16 bits
Compression mode : Lossy
Stream size : 156 MiB (3%)
Title : MVO [Kyiv], 2.0 192 Kbps
Language : Ukrainian
Service kind : Complete Main
Default : Yes
Forced : Yes

Audio #2
ID : 3
Format : AC-3
Format/Info : Audio Coding 3
Commercial name : Dolby Digital
Codec ID : A_AC3
Duration : 1 h 53 min
Bit rate mode : Constant
Bit rate : 384 kb/s
Channel(s) : 6 channels
Channel layout : L R C LFE Ls Rs
Sampling rate : 48.0 kHz
Frame rate : 31.250 FPS (1536 SPF)
Bit depth : 16 bits
Compression mode : Lossy
Stream size : 312 MiB (6%)
Title : Original
Language : French
Service kind : Complete Main
Default : No
Forced : No

Text
ID : 4
Format : UTF-8
Codec ID : S_TEXT/UTF8
Codec ID/Info : UTF-8 Plain Text
Duration : 1 h 38 min
Bit rate : 4 b/s
Count of elements : 141
Stream size : 3.51 KiB (0%)
Title : Forced
Language : French
Default : No
Forced : No

Menu
00:00:00.000 : en:00:00:00.000
00:06:45.708 : en:00:06:45.708
00:17:31.750 : en:00:17:31.750
00:24:44.000 : en:00:24:44.000
00:35:23.833 : en:00:35:23.833
00:45:39.583 : en:00:45:39.583
00:54:28.833 : en:00:54:28.833
01:03:56.000 : en:01:03:56.000
01:12:22.500 : en:01:12:22.500
01:21:56.833 : en:01:21:56.833
01:30:02.625 : en:01:30:02.625
01:39:38.625 : en:01:39:38.625



Запис з ТБ - Петров Микола Синхронізація Sando7
Джерело: &
Особиста оцінка: 8 - мені сподобалося
Повернення до Бургундії / Ce qui nous lie (2017) 720p Ukr/Fre Повернення до Бургундії / Ce qui nous lie (2017) 720p Ukr/Fre


 Трекер:    Зареєстрований   

Завантажити / скачати фільм українською



відео для новачків



 Зареєстрований:   2019-03-06 16:32
 Розмір:   4.72 GB 
 Оцінка фільму:   8/10 (Голосів: 9)
   
Інші релізи
staf777 
Відео Гуртом - підтримка та поширення
Відео Гуртом - підтримка та поширення


З нами з: 16.11.16
Востаннє: 18.10.19
Повідомлень: 2986

2019-03-06 10:42  
Полюбляю вино - щось з погожим сюжетом колись дивився - кацапський фільм
bot 
робот


З нами з: 30.09.07
Востаннє: 26.05.05
Повідомлень: 22309

2019-03-06 16:32  
Тему перенесено з Анонси релізів до форуму Фільми в HD


staf777

Ваш часовий пояс: GMT + 2 Години

Нова тема   Відповісти