Аквамен / Aquaman (2018) UHD 4K 2160p HDR H.265 Ukr/Eng | Sub Eng

Нові коментарі

Нова тема   Відповісти
Автор Повідомлення
antik_2008 
Релізер і модератор відео


З нами з: 20.10.08
Востаннє: 20.04.19
Повідомлень: 1949

2019-03-06 01:29  
Аквамен / Aquaman (2018) UHD 4K 2160p HDR H.265 Ukr/Eng | Sub Eng

Аквамен / Aquaman (2018) UHD 4K 2160p HDR H.265 Ukr/Eng | Sub Eng


Жанр: пригоди, фантастика, екшн
Країна: США, Австралія





Кінокомпанія: Warner Bros., DC Entertainment, DC Comics
Режисер: Джеймс Ван
Актори: Джейсон Момоа, Ембер Герд, Віллем Дефо, Патрік Вілсон, Дольф Лундґрен, Ях'я Абдул-Матін II, Ніколь Кідман, Ґрем Мактавіш, Джимон Гунсу, Рендолл Парк, Джулі Ендрюс, Лі Воннелл

Сюжет:
Кожен із нас може хоч на трішки змінити світ, якщо того захоче. Але серед нас є навіть ті, яким на долі написано вплинути на майбутнє всього людства. Артур Каррі має вельми незвичайну пару батьків: його тато був працівником маяка, а мати – королевою Атлантиди на ім'я Атланна, яку вигнали з царства. Хлопчик виріс, не знаючи про свої сили. Він умів довго затримувати дихання під водою та розмовляв з рибами, але не підозрював, що може зайняти трон Атлантиди. Зараз його тримає зведений брат Артура на ім'я Орм. На жаль, цей хлопець не має добрих намірів до надводного світу та збирається його знищити. Артур, як дитя двох світів, повинен об'єднати їх і не дати Орму зруйнувати цей крихкий мир.


Тривалість: 02:23:21
Якість: 2160p
Відео:
кодек: H.265 (HEVC)
розмір кадру: 3840x2160
бітрейт: ~13600 кб/с
бітова глибина: 10 біт

Аудіо # 1:
мова: українська
переклад: професійний дубльований
кодек: 2.0
бітрейт: 192 кб/с

Аудіо # 2:
мова: англійська
переклад: оригінал
кодек: E- 5.1
бітрейт: 576 кб/с

Субтитри (Forced):
мова: українська
тип: програмні (м'які)
формат: *.srt

Субтитри:
мова: англійська
тип: програмні (м'які)
формат: *.srt
Info
Код:
General
Complete name                            : Aquaman (2018) [IMAX Edition] 4K 2160p HDR H.265 [UKR.ENG] [Video_Hurtom].
Format                                   :
Format version                           : Version 4
File size                                : 14.4 GiB
Duration                                 : 2 h 23 min
Overall bit rate                         : 14.4 Mb/s
Movie name                               : Aquaman (2018) [IMAX Edition] 4K 2160p HDR H.265 [UKR.ENG] [Video_Hurtom]
Encoded date                             : UTC 2019-03-07 09:26:47
Writing application                      : v30.1.0 ('Forever And More') 64-bit
Writing library                          : libebml v1.3.6 + v1.4.9

Video
ID                                       : 1
Format                                   : HEVC
Format/Info                              : High Efficiency Video Coding
Commercial name                          : HDR10
Format profile                           : Main [email protected]@Main
Codec ID                                 : V_MPEGH/ISO/HEVC
Duration                                 : 2 h 23 min
Bit rate                                 : 13.6 Mb/s
Width                                    : 3 840 pixels
Height                                   : 2 160 pixels
Display aspect ratio                     : 16:9
Frame rate mode                          : Constant
Frame rate                               : 23.976 (24000/1001) FPS
Color space                              : YUV
Chroma subsampling                       : 4:2:0 (Type 2)
Bit depth                                : 10 bits
Bits/(Pixel*Frame)                       : 0.068
Stream size                              : 13.6 GiB (95%)
Language                                 : English
Default                                  : Yes
Forced                                   : No
Color range                              : Limited
Color primaries                          : BT.2020
Transfer characteristics                 : PQ
Matrix coefficients                      : BT.2020 non-constant
Mastering display color primaries        : Display P3
Mastering display luminance              : min: 0.0050 cd/m2, max: 4000 cd/m2
Maximum Content Light Level              : 1506 cd/m2
Maximum Frame-Average Light Level        : 459 cd/m2

Audio #1
ID                                       : 2
Format                                   : AC-3
Format/Info                              : Audio Coding 3
Commercial name                          : Dolby Digital
Codec ID                                 : A_AC3
Duration                                 : 2 h 23 min
Bit rate mode                            : Constant
Bit rate                                 : 192 kb/s
Channel(s)                               : 2 channels
Channel layout                           : L R
Sampling rate                            : 48.0 kHz
Frame rate                               : 31.250 FPS (1536 SPF)
Bit depth                                : 16 bits
Compression mode                         : Lossy
Stream size                              : 197 MiB (1%)
Title                                    : , 2 ch, 192 Кбт/с
Language                                 : Ukrainian
Service kind                             : Complete Main
Default                                  : Yes
Forced                                   : No

Audio #2
ID                                       : 3
Format                                   : E-AC-3 JOC
Format/Info                              : Enhanced AC-3 with Joint Object Coding
Commercial name                          : Dolby Digital Plus with Dolby Atmos
Codec ID                                 : A_EAC3
Duration                                 : 2 h 23 min
Bit rate mode                            : Constant
Bit rate                                 : 576 kb/s
Channel(s)                               : 6 channels
Channel layout                           : L R C LFE Ls Rs
Sampling rate                            : 48.0 kHz
Frame rate                               : 31.250 FPS (1536 SPF)
Compression mode                         : Lossy
Stream size                              : 591 MiB (4%)
Title                                    : E-, 6 ch, 576 Кбт/с
Language                                 : English
Service kind                             : Complete Main
Default                                  : No
Forced                                   : No
Complexity index                         : 16
Number of dynamic objects                : 15
Bed channel count                        : 1 channel
Bed channel configuration                : LFE

Text #1
ID                                       : 4
Format                                   : UTF-8
Codec ID                                 : S_TEXT/UTF8
Codec ID/Info                            : UTF-8 Plain Text
Duration                                 : 2 h 22 min
Bit rate                                 : 1 b/s
Count of elements                        : 32
Stream size                              : 1.54 KiB (0%)
Title                                    : Forced
Language                                 : Ukrainian
Default                                  : Yes
Forced                                   : No

Text #2
ID                                       : 5
Format                                   : UTF-8
Codec ID                                 : S_TEXT/UTF8
Codec ID/Info                            : UTF-8 Plain Text
Duration                                 : 2 h 14 min
Bit rate                                 : 38 b/s
Count of elements                        : 1132
Stream size                              : 37.5 KiB (0%)
Title                                    : Full
Language                                 : English
Default                                  : No
Forced                                   : No
Скріншоти
Джерело: &
Особиста оцінка: 9 - давно не бачив настільки якісне кіно
Увага! Перед завантаженням переконайтесь, що ваш пристрій відтворення (та/або ПЗ) підтримує H.265 (HEVC)


 Трекер:    Зареєстрований   

Завантажити / скачати фільм українською



відео для новачків



 Зареєстрований:   2019-03-07 12:37
 Розмір:   14.4 GB 
 Оцінка фільму:   8.5/10 (Голосів: 26)
   
Інші релізи
   Аквамен / Aquaman (2018) (IMAX Edition) uafilm.tv  14 / 0   1.5 GB   2019-03-24 15:03 
   Аквамен / Aquaman [IMAX Edition] (2018) Remux 1080p Ukr/Eng | Sub Eng antik_2008  14 / 0   26.59 GB   2019-03-19 02:31 
   Аквамен / Aquaman (2018) 1080p Ukr/Eng | Sub Eng antik_2008  28 / 0   8.15 GB   2019-03-19 01:29 
   Аквамен / Aquaman (2018) Remux 1080p Ukr/Eng | Sub Eng antik_2008  4 / 0   22.53 GB   2019-03-18 17:42 
   Аквамен / Aquaman [IMAX Edition] (2018) 1080p H.265 Ukr/Eng | Sub Eng -Star-Lord-  10 / 2   10.77 GB   2019-03-17 14:40 
   Аквамен / Aquaman [IMAX Edition] (2018) UHD Remux 4K 2160p HDR H.265 Ukr/Eng | Sub Eng antik_2008  13 / 1   57.05 GB   2019-03-16 18:57 
   Аквамен / Aquaman (2018) AVC (IMAX Edition) Ukr/Eng | Sub Eng 11FrYkT  29 / 1   2.88 GB   2019-03-16 13:31 
   Аквамен / Aquaman (2018) 720p (IMAX Edition) Ukr/Eng | Sub Eng 11FrYkT  17 / 0   7.88 GB   2019-03-16 10:52 
   Аквамен / Aquaman [IMAX Edition] (2018) 1080p Ukr/Eng | Sub Eng antik_2008  23 / 0   19.12 GB   2019-03-15 21:38 
   Аквамен / Aquaman [IMAX Edition] (2018) Ukr/Eng antik_2008  10 / 0   2.44 GB   2019-03-15 21:03 
   Аквамен / Aquaman [Open Matte] (2018) 1080p Ukr/Eng | Sub Eng antik_2008  18 / 0   5.61 GB   2019-03-12 00:41 
   Аквамен / Aquaman (2018) AVC Ukr| Sub Kor Kinomania.studio  8 / 0   1.86 GB   2019-02-14 21:27 
vikmarchello 
Новенький


З нами з: 23.08.13
Востаннє: 19.04.19
Повідомлень: 18

2019-03-06 10:23  
Найочікуваніший анонс! Побільше б релізів в 4k!
NBA 
Новенький


З нами з: 19.09.12
Востаннє: 17.03.19
Повідомлень: 23

2019-03-06 11:29  
Як краще всього зробити так щоб дивитися фільми в 4 к на телевізорі?))
Koful 
VIP


З нами з: 05.12.16
Востаннє: 19.04.19
Повідомлень: 262

2019-03-06 12:18  
NBA написано:
Як краще всього зробити так щоб дивитися фільми в 4 к на телевізорі?))

- можна під’єднати зовнішній диск і з нього дивитись фільми зкачані з толоки;
- можна купити ATV 4 і або дивитись в офіційному айтюнзі, або в піратському онлайн-кінотеатрі (потребує деяких налаштувань);
- можна купити Mi Box або nvidia shield (друга краща), тут вибір кінотеатрів з 4К контентом більший;

vikmarchello 
Новенький


З нами з: 23.08.13
Востаннє: 19.04.19
Повідомлень: 18

2019-03-06 17:57  
Koful
А можна список кінотеатрів? Цікавить просто, контент рідко зустрічається, а 4к торрент закрили ,на який довелося ще й купувати запрошення Sad (1)

bot 
робот


З нами з: 30.09.07
Востаннє: 26.05.05
Повідомлень: 21217

2019-03-07 12:37  
Тему перенесено з Анонси релізів до форуму Фільми в HD


antik_2008

YurOK_88 
Новенький


З нами з: 26.09.18
Востаннє: 12.04.19
Повідомлень: 4

2019-03-07 14:33  
Мало "важить" не та якість буде.. тому я пас..
antik_2008 
Релізер і модератор відео


З нами з: 20.10.08
Востаннє: 20.04.19
Повідомлень: 1949

2019-03-07 15:04  
YurOK_88 написано:
Мало "важить" не та якість буде.. тому я пас..

Якість - це тільки розмір ??? ))))

migelius 
Свій


З нами з: 29.02.08
Востаннє: 18.04.19
Повідомлень: 105

2019-03-07 17:44  
Рекомендую Nvidia Shield. суперовий девайс. Плюс якщо в локальній мережі є комп з нвідіа gtx1060 то можна ігри стрімити на консоль.
Taraskin777 
Новенький


З нами з: 17.08.14
Востаннє: 19.04.19
Повідомлень: 3

2019-03-07 23:30  
antik_2008розмір - це бітрейт. А бітрейт = якість.
antik_2008 
Релізер і модератор відео


З нами з: 20.10.08
Востаннє: 20.04.19
Повідомлень: 1949

2019-03-07 23:58  
Taraskin777 написано:
antik_2008розмір - це бітрейт. А бітрейт = якість.

Бітрейт можу зробити 100 000 і який завгодно

Не завжди є сенс з цього

Taraskin777 
Новенький


З нами з: 17.08.14
Востаннє: 19.04.19
Повідомлень: 3

2019-03-08 00:50  
antik_2008
Бітрейт можу зробити 100 000 і який завгодно

Не завжди є сенс з цього
Може й так. Але в даному випадку помітно низький бітрейт. Хоча і терпимо

drot1715 
Новенький


З нами з: 27.08.14
Востаннє: 19.04.19
Повідомлень: 3

2019-03-08 14:57  
NBA
можна з компютера через програму домашній медіа сервер! відео з налаштування є в ютубі!
[посилання видалено, п.2.10]

andriy225 
Новенький


З нами з: 02.11.12
Востаннє: 20.04.19
Повідомлень: 11

2019-03-08 18:46  
Фільм мені сподобався!

Але є таке питання, чому всюди у фільмах такого масштабу, пхають сцену з російською озвучкою?
Невже не можна було перекласти все українською?

Strider477 
Частий відвідувач


З нами з: 29.10.11
Востаннє: 16.04.19
Повідомлень: 45

2019-03-08 19:09  
Це наче пародія на кіно по коміксам)))
armogun 
Попереджень: 1
Попереджень: 1 


З нами з: 04.05.13
Востаннє: 19.04.19
Повідомлень: 453

2019-03-09 19:41  
~13600 кб/с це знущання ? Гарна якість від 80 Мбіт
Taraskin777 
Новенький


З нами з: 17.08.14
Востаннє: 19.04.19
Повідомлень: 3

2019-03-09 22:46  
armogun
а що є тут на 80 Мбіт?

KeryaS 
Свій


З нами з: 01.09.14
Востаннє: 19.04.19
Повідомлень: 143

2019-03-09 22:51  
armogun написано:
Гарна якість від 80 Мбіт

Гарну якість можна і в 5000 вкласти, залежить від контенту. Від 20000 взагалі 99.9% різниці не побачить. Чи в ланос теж 98 бензин треба лити, бо цифра більша?

Sergius200803 
Новенький


З нами з: 24.10.08
Востаннє: 12.03.19
Повідомлень: 18

2019-03-10 14:53  
семпл в студію

Додано через 5 хвилин 9 секунд:

семпл в студію

ALFROMEDA 
Відео Гуртом - підтримка та поширення
Відео Гуртом - підтримка та поширення


З нами з: 09.07.12
Востаннє: 20.04.19
Повідомлень: 335

2019-03-10 21:24  
Annonimus 
Новенький


З нами з: 17.11.13
Востаннє: 19.04.19
Повідомлень: 2

2019-03-12 11:49  
Крутий фільм, дуже хороша якість релізу! Рекомендую для перегляду і скачування всіх небайдужих!
YurOK_88 
Новенький


З нами з: 26.09.18
Востаннє: 12.04.19
Повідомлень: 4

2019-03-14 02:58  
antik_2008
упс) я помилявся щодо якості) Вона на вищому рівні я від перегляду фільму кальфанув! У фільмі все, і гумор і бойовик і кохання ну і фантастика інколи напрягала але в загальному фільм дуже класний! Рекомендую!! )

bigvovan 
Свій


З нами з: 10.03.09
Востаннє: 19.04.19
Повідомлень: 66

2019-03-17 22:24  
Пропоную створити окремо розділ Фільми 4K. Зараз у багатьох вже такі телевізори.

До речі, хто сумнівається чи брати телевізор Самсунг у нас чи в Польщі, беріть у Польщі, на 50% дешевші НОВІ! Є навіть магазини які дають від себе невелику але гарантію. І збірка не рашківська, а Словакія.

Сам купив 50 дюймів Самсунг смарт ТВ 4К за 10 000 грн

Ваш часовий пояс: GMT + 2 Години

Нова тема   Відповісти