Море спокуси / Serenity (2019) 1080p H.265 Ukr/Eng | Sub Eng

Нові коментарі

Нова тема   Відповісти
Автор Повідомлення
Anonymous 







2019-03-05 22:50  
Море спокуси / Serenity (2019) 1080p H.265 Ukr/Eng | Sub Eng

Море спокуси / Serenity (2019) 1080p H.265 Ukr/Eng | Sub Eng


Жанр: детектив, драма, фантастика, трилер
Країна: США
Кінокомпанія: Global Road Entertainment, IM Global, Shoebox Films, Starlings Entertainment
Режисер: Стівен Найт
Актори: Меттью МакКонахі, Енн Гетевей, Дайан Лейн, Джейсон Кларк, Джимон Хунсу, Джеремі Стронг, Шарлотта Батлер, Девід Батлер, Рафаель Сайег, Майкл Річард

Сюжет:
Головний герой – суворий рибалка з острова Плімут на ім’я Бейкер Ділл. Він заробляє тим, що розважає риболовлею туристів, а у вільний час переслідує одну особливу рибу - величезного коропа, що вже кілька разів зривався з його гачка. Колись давно, в минулому житті, у нього були дружина і син, ось тільки поки він воював в Іраку, дружина пішла від Бейкера до жорстокого мільярдера. Одного разу вона якимось чином знаходить Бейкера і скаржиться, що чоловік тероризує і її та сина. Вона просить колишнього чоловіка «розібратися» з негідником та вбити його, поки той буде рибалити у відкритому морі…

Тривалість: 01:46:01
Якість:
Відео:
кодек: H.265 (HEVC)
розмір кадру: 1920 x 800
бітрейт: 6001 кб/с
бітова глибина: 10 біт
Увага! Перед завантаженням переконайтесь, що ваш пристрій відтворення (та/або ПЗ) підтримує H.265 (HEVC)

Аудіо # 1:
мова: українська
переклад: професійний дубльований | студія Postmodern
кодек: AC-3 5.1
бітрейт: 384 кб/с

Аудіо # 2:
мова: англійська
переклад: оригінал
кодек: 5.1
бітрейт: 1510 кб/с

Субтитри # 1:
мова: англійська (Full),
тип: програмні (м'які)
формат: *.srt


Info
Код:
General
Unique ID                                : 279464056382679969335992412208600081975 (0xD23ED1C7EA9B149EB94BE5AB3ADA6637)
Complete name                            : F:\Video\Serenity (2019) 1080p H.265 [UKR_ENG] [Hurtom].
Format                                   :
Format version                           : Version 4
File size                                : 5.85 GiB
Duration                                 : 1 h 46 min
Overall bit rate                         : 7 897 kb/s
Movie name                               : Serenity (2019)
Encoded date                             : UTC 2019-04-26 13:54:14
Writing application                      : v20.0.0 ('I Am The Sun') 64-bit
Writing library                          : libebml v1.3.5 + v1.4.8
Cover                                    : Yes
Attachments                              : cover.jpg

Video
ID                                       : 1
Format                                   : HEVC
Format/Info                              : High Efficiency Video Coding
Format profile                           : Main [email protected]@High
Codec ID                                 : V_MPEGH/ISO/HEVC
Duration                                 : 1 h 46 min
Bit rate                                 : 6 001 kb/s
Width                                    : 1 920 pixels
Height                                   : 800 pixels
Display aspect ratio                     : 2.40:1
Frame rate mode                          : Constant
Frame rate                               : 23.976 (24000/1001) FPS
Color space                              : YUV
Chroma subsampling                       : 4:2:0
Bit depth                                : 10 bits
Bits/(Pixel*Frame)                       : 0.163
Stream size                              : 4.44 GiB (76%)
Title                                    : Serenity (2019)
Writing library                          : x265 3.0+1-ed72af837053:[Windows][GCC 8.2.0][64 bit] 10bit
Encoding settings                        : cpuid=1111039 / frame-threads=4 / numa-pools=14,14 / wpp / pmode / no-pme / no-psnr / no-ssim / log-level=2 / input-csp=1 / input-res=1920x800 / interlace=0 / total-frames=152518 / level-idc=41 / high-tier=1 / uhd-bd=0 / ref=3 / no-allow-non-conformance / no-repeat-headers / annexb / no-aud / no-hrd / info / hash=0 / no-temporal-layers / open-gop / min-keyint=23 / keyint=240 / gop-lookahead=0 / bframes=4 / b-adapt=2 / b-pyramid / bframe-bias=0 / rc-lookahead=20 / lookahead-slices=5 / scenecut=40 / radl=0 / no-splice / no-intra-refresh / ctu=32 / min-cu-size=8 / no-rect / no-amp / max-tu-size=32 / tu-inter-depth=1 / tu-intra-depth=1 / limit-tu=0 / rdoq-level=0 / dynamic-rd=0.00 / no-ssim-rd / signhide / no-tskip / nr-intra=0 / nr-inter=0 / no-constrained-intra / no-strong-intra-smoothing / max-merge=2 / limit-refs=0 / no-limit-modes / me=2 / subme=5 / merange=32 / temporal-mvp / weightp / no-weightb / no-analyze-src-pics / deblock=-3:-3 / no-sao / no-sao-non-deblock / rd=3 / no-early-skip / rskip / no-fast-intra / no-tskip-fast / no-cu-lossless / no-b-intra / no-splitrd-skip / rdpenalty=0 / psy-rd=2.00 / psy-rdoq=0.00 / no-rd-refine / no-lossless / cbqpoffs=0 / crqpoffs=0 / rc=crf / crf=17.0 / qcomp=0.60 / qpstep=4 / stats-write=0 / stats-read=0 / vbv-maxrate=50000 / vbv-bufsize=50000 / vbv-init=0.9 / crf-max=0.0 / crf-min=0.0 / ipratio=1.40 / pbratio=1.30 / aq-mode=3 / aq-strength=0.95 / cutree / zone-count=0 / no-strict-cbr / qg-size=32 / no-rc-grain / qpmax=69 / qpmin=0 / no-const-vbv / sar=0 / overscan=0 / videoformat=5 / range=0 / colorprim=1 / transfer=1 / colormatrix=1 / chromaloc=0 / display-window=0 / max-cll=0,0 / min-luma=0 / max-luma=1023 / log2-max-poc-lsb=8 / vui-timing-info / vui-hrd-info / slices=1 / no-opt-qp-pps / no-opt-ref-list-length-pps / no-multi-pass-opt-rps / scenecut-bias=0.05 / no-opt-cu-delta-qp / no-aq-motion / no-hdr / no-hdr-opt / no-dhdr10-opt / no-idr-recovery-sei / analysis-reuse-level=5 / scale-factor=0 / refine-intra=0 / refine-inter=0 / refine-mv=0 / refine-ctu-distortion=0 / no-limit-sao / ctu-info=0 / no-lowpass-dct / refine-analysis-type=0 / copy-pic=1 / max-ausize-factor=1.0 / no-dynamic-refine / no-single-sei / no-hevc-aq / qp-adaptation-range=1.00
Language                                 : English
Default                                  : Yes
Forced                                   : No
Color range                              : Limited
Color primaries                          : BT.709
Transfer characteristics                 : BT.709
Matrix coefficients                      : BT.709

Audio #1
ID                                       : 2
Format                                   : AC-3
Format/Info                              : Audio Coding 3
Commercial name                          : Dolby Digital
Codec ID                                 : A_AC3
Duration                                 : 1 h 45 min
Bit rate mode                            : Constant
Bit rate                                 : 384 kb/s
Channel(s)                               : 6 channels
Channel layout                           : L R C LFE Ls Rs
Sampling rate                            : 48.0 kHz
Frame rate                               : 31.250 FPS (1536 SPF)
Bit depth                                : 16 bits
Compression mode                         : Lossy
Stream size                              : 291 MiB (5%)
Title                                    : ПД - іTunеs, 5.1 384 kbps
Language                                 : Ukrainian
Service kind                             : Complete Main
Default                                  : Yes
Forced                                   : Yes

Audio #2
ID                                       : 3
Format                                   :
Format/Info                              : Digital Theater Systems
Codec ID                                 : A_DTS
Duration                                 : 1 h 46 min
Bit rate mode                            : Constant
Bit rate                                 : 1 509 kb/s
Channel(s)                               : 6 channels
Channel layout                           : C L R Ls Rs LFE
Sampling rate                            : 48.0 kHz
Frame rate                               : 93.750 FPS (512 SPF)
Bit depth                                : 24 bits
Compression mode                         : Lossy
Stream size                              : 1.12 GiB (19%)
Title                                    : Original
Language                                 : English
Default                                  : No
Forced                                   : No

Text
ID                                       : 4
Format                                   : UTF-8
Codec ID                                 : S_TEXT/UTF8
Codec ID/Info                            : UTF-8 Plain Text
Duration                                 : 1 h 38 min
Bit rate                                 : 58 b/s
Count of elements                        : 1130
Stream size                              : 42.4 KiB (0%)
Title                                    : Full
Language                                 : English
Default                                  : No
Forced                                   : No

Menu
00:00:00.000                             : :Chapter 01
00:01:55.198                             : :Chapter 02
00:09:35.783                             : :Chapter 03
00:19:25.038                             : :Chapter 04
00:34:03.750                             : :Chapter 05
00:46:53.852                             : :Chapter 06
00:56:48.947                             : :Chapter 07
01:04:42.295                             : :Chapter 08
01:13:32.366                             : :Chapter 09
01:22:06.755                             : :Chapter 10
01:34:41.676                             : :Chapter 11
01:40:29.064                             : :Chapter 12
Світлини





Джерело: &
Особиста оцінка: 0 - не дивився


 Трекер:    Зареєстрований   

Завантажити / скачати фільм українською



відео для новачків



 Зареєстрований:   2019-04-26 17:01
 Розмір:   5.85 GB 
 Оцінка фільму:   8.8/10 (Голосів: 24)
   
Інші релізи
   Море спокуси / Serenity (2019) Remux 1080p Ukr/Eng | Sub Eng staf777  2 / 0   21.38 GB   2019-04-26 12:55 
   Море спокуси / Serenity (2019) 1080p Ukr/Eng | Sub Eng staf777  4 / 0   11.99 GB   2019-04-25 08:10 
   Море спокуси / Serenity (2019) uafilm.tv  25 / 0   1.41 GB   2019-04-24 19:44 
   Море спокуси / Serenity (2019) AVC Ukr/Eng | Sub Eng 11FrYkT  20 / 0   1.94 GB   2019-04-24 10:08 
   Море спокуси / Serenity (2019) surikmas  0 / 0   746 MB   2019-04-24 07:24 
   Море спокуси / Serenity (2019) 720p Ukr/Eng | Sub Eng 11FrYkT  15 / 1   3.78 GB   2019-04-23 21:58 
Anonymous 







2019-04-26 17:01  
Заміна звуку з 2.0 на 5.1

[email protected] 
Свій


З нами з: 03.12.14
Востаннє: 18.08.19
Повідомлень: 65

2019-04-29 08:03  
доброго дня люди, а станьте хто на роздачу, другий день скачати не можу, дякую
Ваш часовий пояс: GMT + 2 Години

Нова тема   Відповісти