Той, що занепав / Fallen (1998) 1080р H.265 2xUkr/Eng | Sub Eng

Нові коментарі

Нова тема   Відповісти
Автор Повідомлення
-Star-Lord- 
VIP


З нами з: 09.08.18
Востаннє: 23.04.19
Повідомлень: 737

2019-03-05 22:37  
Той, що занепав / Fallen (1998) 1080р H.265 2xUkr/Eng | Sub Eng

Той, що занепав / Fallen (1998) 1080р H.265 2xUkr/Eng | Sub Eng


Жанр: детектив, містика, фентезі, бойовик, трилер, драма, кримінальний
Країна: США
Кінокомпанія: Warner Bros. Pictures
Режисер: Грегорі Гобліт / Gregory Hoblit
Актори: Дензел Вашинґтон (Denzel Washington), Джон Ґудмен (John Goodman), Дональд Сазерленд / Donald Sutherland, Ембет Девідц / Embeth Davidtz, Джеймс Гандольфіні / James Gandolfini, Еліас Котеас / Elias Koteas, Гебріел Коссес / Gabriel Casseus, Майкл Дж. Паган / Michael J. Pagan, Роберт Джой / Robert Joy, Френк Медрано / Frank Medrano, Ронн Манро / Ronn Munro, Сінтія Хейден / Cynthia Hayden та інші.

Сюжет:
У міській в'язниці страчено за вироком суду небезпечного злочинця, маніяка-вбивцю. З цього моменту в місті відбуваються одне за одним загадкові вбивства, при тому, судячи по тілах жертв, убивства ритуального характеру.

Поліцейський детектив Хоббс, присутній при страті маніяка, береться за розслідування серії цих злочинів і, для початку, з'ясовує, як звати того, хто їх скоїв. Встановивши його ім'я, детектив приходить до страшного висновку: ці злодіяння - не людських рук справа, а демона - вбивці, що вирвався в наш світ ...

Тривалість: 02:04:11
Якість:
Відео:
кодек: H.265 (HEVC)
розмір кадру: 1920 x 800
бітрейт: 5 536 кб/с
бітова глибина: 10 біт
Увага! Перед завантаженням переконайтесь, що ваш пристрій відтворення (та/або ПЗ) підтримує H.265 (HEVC)

Аудіо # 1:
мова: українська
переклад: багатоголосий закадровий
кодек: AC-3 2.0
бітрейт: 192 кб/с

Аудіо # 2:
мова: українська
переклад: багатоголосий закадровий
кодек: AC-3 2.0
бітрейт: 192 кб/с

Аудіо # 3:
мова: англійська
переклад: оригінал
кодек: 5.1
бітрейт: 1510 кб/с

Субтитри # 1:
мова: англійська (Full),
тип: програмні (м'які)
формат: *.srt


Info
Код:
General
Unique ID                                : 246219225437737103611150644455203671758 (0xB93C1910FC6F641967AFE19F56D80ECE)
Complete name                            : F:\Video\Fallen (1998) 1080p H.265 [2xUKR_ENG] [Hurtom].
Format                                   :
Format version                           : Version 4 / Version 2
File size                                : 6.45 GiB
Duration                                 : 2 h 4 min
Overall bit rate                         : 7 432 kb/s
Movie name                               : Fallen (1998)
Encoded date                             : UTC 2019-03-04 10:05:29
Writing application                      : v20.0.0 ('I Am The Sun') 64-bit
Writing library                          : libebml v1.3.5 + v1.4.8
Cover                                    : Yes
Attachments                              : Cover.jpg

Video
ID                                       : 1
Format                                   : HEVC
Format/Info                              : High Efficiency Video Coding
Format profile                           : Main [email protected]@High
Codec ID                                 : V_MPEGH/ISO/HEVC
Duration                                 : 2 h 4 min
Bit rate                                 : 5 536 kb/s
Width                                    : 1 920 pixels
Height                                   : 800 pixels
Display aspect ratio                     : 2.40:1
Frame rate mode                          : Constant
Frame rate                               : 23.976 (24000/1001) FPS
Color space                              : YUV
Chroma subsampling                       : 4:2:0
Bit depth                                : 10 bits
Bits/(Pixel*Frame)                       : 0.150
Stream size                              : 4.80 GiB (74%)
Title                                    : Fallen (1998)
Writing library                          : x265 2.9+9-f74003e88622:[Windows][GCC 8.2.0][64 bit] 10bit
Encoding settings                        : cpuid=1111039 / frame-threads=7 / numa-pools=6 / wpp / no-pmode / no-pme / no-psnr / no-ssim / log-level=3 / input-csp=1 / input-res=1920x800 / interlace=0 / total-frames=0 / level-idc=41 / high-tier=1 / uhd-bd=0 / ref=4 / allow-non-conformance / no-repeat-headers / annexb / no-aud / no-hrd / info / hash=0 / no-temporal-layers / open-gop / min-keyint=24 / keyint=240 / gop-lookahead=0 / bframes=8 / b-adapt=2 / b-pyramid / bframe-bias=0 / rc-lookahead=20 / lookahead-slices=5 / scenecut=40 / radl=0 / no-intra-refresh / ctu=64 / min-cu-size=8 / rect / amp / max-tu-size=32 / tu-inter-depth=1 / tu-intra-depth=1 / limit-tu=0 / rdoq-level=0 / dynamic-rd=0.00 / no-ssim-rd / signhide / no-tskip / nr-intra=0 / nr-inter=0 / no-constrained-intra / no-strong-intra-smoothing / max-merge=2 / limit-refs=3 / no-limit-modes / me=3 / subme=7 / merange=57 / temporal-mvp / weightp / no-weightb / no-analyze-src-pics / deblock=-3:-3 / no-sao / no-sao-non-deblock / rd=3 / no-early-skip / rskip / no-fast-intra / no-tskip-fast / no-cu-lossless / no-b-intra / no-splitrd-skip / rdpenalty=0 / psy-rd=2.00 / psy-rdoq=0.00 / no-rd-refine / no-lossless / cbqpoffs=0 / crqpoffs=0 / rc=crf / crf=18.0 / qcomp=0.70 / qpstep=4 / stats-write=0 / stats-read=0 / vbv-maxrate=50000 / vbv-bufsize=50000 / vbv-init=0.9 / crf-max=30.0 / crf-min=0.0 / ipratio=1.40 / pbratio=1.30 / aq-mode=1 / aq-strength=1.00 / cutree / zone-count=0 / no-strict-cbr / qg-size=32 / no-rc-grain / qpmax=69 / qpmin=0 / no-const-vbv / sar=1 / overscan=0 / videoformat=5 / range=0 / colorprim=1 / transfer=1 / colormatrix=1 / chromaloc=0 / display-window=0 / max-cll=0,0 / min-luma=0 / max-luma=1023 / log2-max-poc-lsb=8 / vui-timing-info / vui-hrd-info / slices=1 / no-opt-qp-pps / no-opt-ref-list-length-pps / no-multi-pass-opt-rps / scenecut-bias=0.05 / no-opt-cu-delta-qp / no-aq-motion / no-hdr / no-hdr-opt / no-dhdr10-opt / no-idr-recovery-sei / analysis-reuse-level=5 / scale-factor=0 / refine-intra=0 / refine-inter=0 / refine-mv=0 / no-limit-sao / ctu-info=0 / no-lowpass-dct / refine-mv-type=0 / copy-pic=1 / max-ausize-factor=1.0 / no-dynamic-refine / no-single-sei
Default                                  : Yes
Forced                                   : No
Color range                              : Limited
Color primaries                          : BT.709
Transfer characteristics                 : BT.709
Matrix coefficients                      : BT.709

Audio #1
ID                                       : 2
Format                                   : AC-3
Format/Info                              : Audio Coding 3
Codec ID                                 : A_AC3
Duration                                 : 2 h 4 min
Bit rate mode                            : Constant
Bit rate                                 : 192 kb/s
Channel(s)                               : 2 channels
Channel positions                        : Front: L R
Sampling rate                            : 48.0 kHz
Frame rate                               : 31.250 FPS (1536 SPF)
Bit depth                                : 16 bits
Compression mode                         : Lossy
Stream size                              : 171 MiB (3%)
Title                                    : БЗ - Novy Kanal
Language                                 : Ukrainian
Service kind                             : Complete Main
Default                                  : Yes
Forced                                   : Yes

Audio #2
ID                                       : 3
Format                                   : AC-3
Format/Info                              : Audio Coding 3
Codec ID                                 : A_AC3
Duration                                 : 2 h 4 min
Bit rate mode                            : Constant
Bit rate                                 : 192 kb/s
Channel(s)                               : 2 channels
Channel positions                        : Front: L R
Sampling rate                            : 48.0 kHz
Frame rate                               : 31.250 FPS (1536 SPF)
Bit depth                                : 16 bits
Compression mode                         : Lossy
Stream size                              : 171 MiB (3%)
Title                                    : БЗ - ICTV
Language                                 : Ukrainian
Service kind                             : Complete Main
Default                                  : No
Forced                                   : No

Audio #3
ID                                       : 4
Format                                   :
Format/Info                              : Digital Theater Systems
Codec ID                                 : A_DTS
Duration                                 : 2 h 4 min
Bit rate mode                            : Constant
Bit rate                                 : 1 509 kb/s
Channel(s)                               : 6 channels
Channel positions                        : Front: L C R, Side: L R, LFE
Sampling rate                            : 48.0 kHz
Frame rate                               : 93.750 FPS (512 SPF)
Bit depth                                : 24 bits
Compression mode                         : Lossy
Stream size                              : 1.31 GiB (20%)
Title                                    : Original
Language                                 : English
Default                                  : No
Forced                                   : No

Text
ID                                       : 5
Format                                   : UTF-8
Codec ID                                 : S_TEXT/UTF8
Codec ID/Info                            : UTF-8 Plain Text
Duration                                 : 2 h 0 min
Bit rate                                 : 51 b/s
Count of elements                        : 1332
Stream size                              : 45.6 KiB (0%)
Title                                    : Full
Language                                 : English
Default                                  : Yes
Forced                                   : No

Menu #1
00:00:00.000                             : en:00:00:00.000
00:05:00.000                             : en:00:05:00.000
00:10:00.000                             : en:00:10:00.000
00:15:00.000                             : en:00:15:00.000
00:20:00.000                             : en:00:20:00.000
00:25:00.000                             : en:00:25:00.000
00:30:00.000                             : en:00:30:00.000
00:35:00.000                             : en:00:35:00.000
00:40:00.000                             : en:00:40:00.000
00:45:00.000                             : en:00:45:00.000
00:50:00.000                             : en:00:50:00.000
00:55:00.000                             : en:00:55:00.000
01:00:00.000                             : en:01:00:00.000
01:05:00.000                             : en:01:05:00.000
01:10:00.000                             : en:01:10:00.000
01:15:00.000                             : en:01:15:00.000
01:20:00.000                             : en:01:20:00.000
01:25:00.000                             : en:01:25:00.000
01:30:00.000                             : en:01:30:00.000
01:35:00.000                             : en:01:35:00.000
01:40:00.000                             : en:01:40:00.000
01:45:00.000                             : en:01:45:00.000
01:50:00.000                             : en:01:50:00.000
01:55:00.000                             : en:01:55:00.000
02:00:00.000                             : en:02:00:00.000

Menu #2
00:00:00.000                             : :Глава 1
00:08:29.175                             : :Глава 2
00:16:44.294                             : :Глава 3
00:26:38.596                             : :Глава 4
00:35:49.772                             : :Глава 5
00:47:07.950                             : :Глава 6
00:57:02.460                             : :Глава 7
01:06:56.095                             : :Глава 8
01:16:21.702                             : :Глава 9
01:26:01.281                             : :Глава 10
01:34:58.734                             : :Глава 11
01:41:34.213                             : :Глава 12
01:50:17.777                             : :Глава 13
01:58:18.007                             : :Глава 14
Світлини





Джерело: &
Особиста оцінка: 0 - не дивився


Срібний реліз (на рейтинг впливає 50% завантаженого)
 Трекер:    Зареєстрований   

Завантажити / скачати фільм українською



відео для новачків



 Зареєстрований:   2019-03-05 22:37
 Розмір:   6.45 GB 
 Оцінка фільму:   -/10 (Голосів: 0)
   
Інші релізи
   Той, що занепав / Fallen (1998) Remux 1080р 2xUkr/Eng | Sub Eng kryk-v.ya.  2 / 0   31.7 GB   2018-07-25 13:42 
   Той, що занепав / Fallen (1998) 1080р Ukr/Eng | Sub Eng vovang6  3 / 0   9.87 GB   2015-03-18 19:20 
   Той, що занепав / Fallen (1998) xslim  6 / 0   2.01 GB   2014-03-06 22:36 
   Той, що занепав / Fallen (1998) Ukr/Eng Neo777  3 / 0   2.02 GB   2011-06-29 10:50 
Ваш часовий пояс: GMT + 2 Години

Нова тема   Відповісти