Крилаті рятівники / Top Wing (Сезон 1) (2017) 1080p

Нові коментарі

Нова тема   Відповісти
Останній раз роздавалося TemA_13 (2021-04-09)
Автор Повідомлення
sergiyko.5 
Забанено
Забанено


З нами з: 25.02.16
Востаннє: 29.10.20
Повідомлень: 3648

2019-03-05 16:20  
Крилаті рятівники / Top Wing (Сезон 1) (2017) 1080p

Крилаті рятівники / Top Wing (Сезон 1) (2017) 1080p

Жанр: анімація, пригоди
Країна: Канада
Режисер: Матев Фернандес, Скотт Крафт

Сюжет:
Пригоди птахів Свіфта, Пенні, Броді й Рода не лише захоплюючі, а й змушують замислитись над питанням добра і зла.




Тривалість: 1 серія: 21:40 (цілком серій: 26 з 26)
Якість:

Відео: кодек: розмір кадру: 1920 х 1080 бітрейт: 3800 кб/с
Аудіо: мова: українська переклад: професійний дубльований кодек: 2.0ch бітрейт: 192 кб/с [Stereo]
Озвучення:

Примітка: українська доріжка записана з супутникової трансляції телеканала ПлюсПлюс і синхронізована під HD відео.
Перелік серій
01 Час розправити крила
02 Перегони каньйоном небезпеки / Род рятує ведмежатко
03 Пенні рятує білого ведмедя / Білочка Ширлі літає
04 Лимонні пірати / Карта скарбів
05 Загублені гуси / Род кукурікає
06 Врятований сніданок / Перемогти!
07 Порятунок вітрольота / Порятунок черепахового поїзда
08 Пенні пірнає / Великий стрибок Рода
09 Курчата на волі / Род мріє політати
10 Врятувати греблю / Великі цапові перегони
11 Бананові бандити / Ширлі на ракеті
12 Порятунок яєць / Свято сяючих перлин
13 Неймовірні пригоди черепах / Броді їде додому
14 Бандити на дні народження / Таємниця печери з привидами
15 Пригоди Рода і Броді у джунглях / Кадет на день
16 Пенні рятує скарб / Пенні на всюдильоті
17 Вечірка капітана Ділі / Команда мрії
18 Серфінг у печері / Кадети рятують лимонну хижку
19 Ночівля Ширлі / З'їхати з дороги
20 Прибирання на острові / Ен'ью влаштовує свято
21 Бадді замислив лихе / Півник-пискавка
22 Пенні рятує водоліт / Крадіжка банана
23 У Бі вихідний / Великі ігри на острові Хвиль
24 Порятунок ведмедя-екстремала / Політ Тіммі
25 Рятівна операція юніорів / Пошуки затонулого скарбу
26 Летючі бананові бандити / Свято прохолоди для Пенні
Про файл:
General
Unique ID : 270099346041996716331821220536327524117 (0xCB333DE9E48708EB7C8F2C0E2FDACF15)
Complete name : G:\Torrents2\MULT\MuSERIAL\Top Wing S01 1080p \S01E01.Time to Earn Our Wings.1080p..
Format :
Format version : Version 4
File size : 662 MiB
Duration : 21 min 39 s
Overall bit rate : 4 272 kb/s
Movie name : Top Wing S01 1080p by sergiyko
Encoded date : UTC 2019-03-05 13:14:45
Writing application : v30.0.0 ('Interstellar') 64-bit
Writing library : libebml v1.3.6 + v1.4.9

Video
ID : 1
Format : AVC
Format/Info : Advanced Video Codec
Format profile : [email protected]
Format settings : CABAC / 6 Ref Frames
Format settings, CABAC : Yes
Format settings, ReFrames : 6 frames
Codec ID : V_MPEG4/ISO/AVC
Duration : 21 min 39 s
Bit rate : 3 821 kb/s
Width : 1 920 pixels
Height : 1 080 pixels
Display aspect ratio : 16:9
Frame rate mode : Constant
Frame rate : 25.000 FPS
Color space : YUV
Chroma subsampling : 4:2:0
Bit depth : 8 bits
Scan type : Progressive
Bits/(Pixel*Frame) : 0.074
Stream size : 592 MiB (89%)
Title : S01E01.Time to Earn Our Wings
Language : English
Default : Yes
Forced : No

Audio #1
ID : 2
Format : AC-3
Format/Info : Audio Coding 3
Commercial name : Dolby Digital
Codec ID : A_AC3
Duration : 21 min 39 s
Bit rate mode : Constant
Bit rate : 192 kb/s
Channel(s) : 2 channels
Channel layout : L R
Sampling rate : 48.0 kHz
Frame rate : 31.250 FPS (1536 SPF)
Bit depth : 16 bits
Compression mode : Lossy
Stream size : 29.8 MiB (4%)
Title : DUB 2ch | ПлюсПлюс
Language : Ukrainian
Service kind : Complete Main
Default : Yes
Forced : Yes
Скріншоти:



Запис/синхронізація: sergiyko


Бронзовий реліз (на рейтинг впливає 75% завантаженого)
 Трекер:    Зареєстрований   

Завантажити / скачати мультфільм українською



відео для новачків



 Зареєстрований:   2019-08-14 12:50
 Розмір:   16.02 GB 
 Оцінка мультсеріалу:   9.9/10 (Голосів: 10)
   
zenka23 
Новенький


З нами з: 29.07.09
Востаннє: 08.04.21
Повідомлень: 9

2019-04-13 22:34  
Дякую за реліз.
А більше серій не планується?

sergiyko.5 
Забанено
Забанено


З нами з: 25.02.16
Востаннє: 29.10.20
Повідомлень: 3648

2019-04-14 17:42  
Додав 3-13 серії. Нових поки що не передбачається, канал почав повторювати старі серії.
nikalexey 
Свій


З нами з: 15.08.17
Востаннє: 10.04.21
Повідомлень: 66

2019-05-21 16:33  
дякую за реліз
сину сподобалось, будемо чекати на нові серії

sergiyko.5 
Забанено
Забанено


З нами з: 25.02.16
Востаннє: 29.10.20
Повідомлень: 3648

2019-08-14 11:41  
Додав серії до повного сезону. Приємного перегляду!
Ваш часовий пояс: GMT + 2 Години

Нова тема   Відповісти