Не хвилюйся, він далеко не піде / Don't Worry, He Won't Get Far on Foot (2018) 1080p Ukr/Eng | Sub Eng

Нові коментарі

Нова тема   Відповісти
Автор Повідомлення
staf777 
Відео Гуртом - підтримка та поширення
Відео Гуртом - підтримка та поширення


З нами з: 16.11.16
Востаннє: 06.12.19
Повідомлень: 3038

2019-03-05 13:14  
Не хвилюйся, він далеко не піде / Don't Worry, He Won't Get Far on Foot (2018) 1080p Ukr/Eng | Sub Eng



Жанр: біографічний, драма, комедія
Країна: Франція, США



Кінокомпанія: Amazon Studios, Anonymous Content, Big Indie Pictures
Режисер: Гас Ван Сент
Актори: Хоакін Фенікс, Джона Гілл, Руні Мара, Джек Блек, Бет Дітто, Марк Веббер, Кім Гордон, Удо Кір

Сюжет:
Історія алкоголіка і гульвіси Джона Каллахана, який, потрапивши у автомобільну аварію і втративши можливість ходити, починає відвідувати зустрічі товариства анонімних алкоголіків і згодом відкриває в собі талант карикатуриста.


Тривалість: 01:54:19
Якість: 1080p
Відео:
кодек:
розмір кадру: 1920х1080
бітрейт: 9500 кб/с

Аудіо # 1:
мова: українська
переклад: професійний дубльований
кодек: 2.0 (стерео)
бітрейт: 192 кб/с

Аудіо # 2:
мова: англійська
переклад: оригінал
кодек: 5.1
бітрейт: 1509 кб/с

Субтитри # 1-2: [Full+SDH]
мова: англійська
тип: програмні (м'які)
формат: *.srt
Info
General
Unique ID : 269643987074440138830914488770811117655 (0xCADB8AFBB1F41220A09D4FEE5FBFC057)
Complete name : S:\» HD українською » Фільми в HD\Комедія\Don't Worry, He Won't Get Far on Foot (2018) 1080p [UKR_ENG] [Hurtom].
Format :
Format version : Version 4
File size : 8.93 GiB
Duration : 1 h 54 min
Overall bit rate : 11.2 Mb/s
Movie name : Don't Worry, He Won't Get Far on Foot (2018) 1080p [UKR_ENG] [Hurtom]
Encoded date : UTC 2019-03-05 12:55:21
Writing application : v30.1.0 ('Forever And More') 64-bit
Writing library : libebml v1.3.6 + v1.4.9
Cover : Yes
Attachments : cover.jpg

Video
ID : 1
Format : AVC
Format/Info : Advanced Video Codec
Format profile : [email protected]
Format settings : CABAC / 4 Ref Frames
Format settings, CABAC : Yes
Format settings, ReFrames : 4 frames
Codec ID : V_MPEG4/ISO/AVC
Duration : 1 h 54 min
Bit rate : 9 500 kb/s
Width : 1 920 pixels
Height : 1 080 pixels
Display aspect ratio : 16:9
Frame rate mode : Constant
Frame rate : 23.976 (24000/1001) FPS
Color space : YUV
Chroma subsampling : 4:2:0
Bit depth : 8 bits
Scan type : Progressive
Bits/(Pixel*Frame) : 0.191
Stream size : 7.57 GiB (85%)
Title : CHD
Writing library : core 155 r2901 7d0ff22
Encoding settings : cabac=1 / ref=4 / deblock=1:-3:-3 / analyse=0x3:0x113 / me=umh / subme=10 / psy=1 / psy_rd=1.05:0.10 / mixed_ref=1 / me_range=48 / chroma_me=1 / trellis=2 / 8x8dct=1 / cqm=0 / deadzone=21,11 / fast_pskip=0 / chroma_qp_offset=-2 / threads=18 / lookahead_threads=1 / sliced_threads=0 / nr=0 / decimate=1 / interlaced=0 / bluray_compat=0 / constrained_intra=0 / bframes=6 / b_pyramid=2 / b_adapt=2 / b_bias=0 / direct=3 / weightb=1 / open_gop=0 / weightp=2 / keyint=250 / keyint_min=23 / scenecut=40 / intra_refresh=0 / rc=2pass / mbtree=0 / bitrate=9500 / ratetol=2.0 / qcomp=0.70 / qpmin=0 / qpmax=69 / qpstep=4 / cplxblur=20.0 / qblur=0.5 / ip_ratio=1.40 / pb_ratio=1.30 / aq=3:1.00
Language : English
Default : Yes
Forced : No

Audio #1
ID : 2
Format : AC-3
Format/Info : Audio Coding 3
Commercial name : Dolby Digital
Codec ID : A_AC3
Duration : 1 h 54 min
Bit rate mode : Constant
Bit rate : 192 kb/s
Channel(s) : 2 channels
Channel layout : L R
Sampling rate : 48.0 kHz
Frame rate : 31.250 FPS (1536 SPF)
Bit depth : 16 bits
Compression mode : Lossy
Stream size : 157 MiB (2%)
Language : Ukrainian
Service kind : Complete Main
Default : Yes
Forced : Yes

Audio #2
ID : 3
Format :
Format/Info : Digital Theater Systems
Codec ID : A_DTS
Duration : 1 h 54 min
Bit rate mode : Constant
Bit rate : 1 509 kb/s
Channel(s) : 6 channels
Channel layout : C L R Ls Rs LFE
Sampling rate : 48.0 kHz
Frame rate : 93.750 FPS (512 SPF)
Bit depth : 24 bits
Compression mode : Lossy
Stream size : 1.21 GiB (13%)
Title : Original
Language : English
Default : No
Forced : No

Text #1
ID : 4
Format : UTF-8
Codec ID : S_TEXT/UTF8
Codec ID/Info : UTF-8 Plain Text
Duration : 1 h 53 min
Bit rate : 66 b/s
Count of elements : 1778
Stream size : 55.4 KiB (0%)
Title : Full
Language : English
Default : No
Forced : No

Text #2
ID : 5
Format : UTF-8
Codec ID : S_TEXT/UTF8
Codec ID/Info : UTF-8 Plain Text
Duration : 1 h 53 min
Bit rate : 74 b/s
Count of elements : 1946
Stream size : 61.5 KiB (0%)
Title : SDH
Language : English
Default : No
Forced : No

Menu
00:00:00.000 : :00:00:00.000
00:07:49.761 : :00:07:49.761
00:13:09.622 : :00:13:09.622
00:21:26.076 : :00:21:26.076
00:27:13.966 : :00:27:13.966
00:35:06.479 : :00:35:06.479
00:42:30.673 : :00:42:30.673
00:48:53.556 : :00:48:53.556
00:56:36.310 : :00:56:36.310
01:02:30.497 : :01:02:30.497
01:09:25.953 : :01:09:25.953
01:17:00.282 : :01:17:00.282
01:23:36.637 : :01:23:36.637
01:31:06.544 : :01:31:06.544
01:37:58.748 : :01:37:58.748
01:46:20.833 : :01:46:20.833
Скріншоти



Джерело: &
Особиста оцінка: 0 - не дивився


 Трекер:    Зареєстрований   

Завантажити / скачати фільм українською



відео для новачків



 Зареєстрований:   2019-03-05 15:31
 Розмір:   8.93 GB 
 Оцінка фільму:   8.2/10 (Голосів: 5)
   
Ваш часовий пояс: GMT + 2 Години

Нова тема   Відповісти