Море спокуси / Serenity (2019) 1080p Ukr/Eng | Sub Eng

Нові коментарі

Нова тема   Відповісти
Автор Повідомлення
staf777 
Відео Гуртом - підтримка та поширення
Відео Гуртом - підтримка та поширення


З нами з: 16.11.16
Востаннє: 22.03.19
Повідомлень: 2196

2019-03-05 12:23  
Море спокуси / Serenity (2019) 1080p Ukr/Eng | Sub Eng


«Залишиться в живих лиш той, хто грає за правилами»



Жанр: детектив, драма, фантастика, трилер
Країна: США



Кінокомпанія: Global Road Entertainment, IM Global, Shoebox Films, Starlings Entertainment
Режисер: Стівен Найт
Актори: Меттью МакКонахі, Енн Гетевей, Дайан Лейн, Джейсон Кларк, Джимон Хунсу, Джеремі Стронг, Шарлотта Батлер, Девід Батлер, Рафаель Сайег, Майкл Річард

Сюжет:
Головний герой – суворий рибалка з острова Плімут на ім’я Бейкер Ділл. Він заробляє тим, що розважає риболовлею туристів, а у вільний час переслідує одну особливу рибу - величезного коропа, що вже кілька разів зривався з його гачка. Колись давно, в минулому житті, у нього були дружина і син, ось тільки поки він воював в Іраку, дружина пішла від Бейкера до жорстокого мільярдера. Одного разу вона якимось чином знаходить Бейкера і скаржиться, що чоловік тероризує і її та сина. Вона просить колишнього чоловіка «розібратися» з негідником та вбити його, поки той буде рибалити у відкритому морі…


Тривалість: 01:46:00
Якість: 1080p

Відео:
кодек:
розмір кадру: 1920 x 804
бітрейт: 14,3 Mб/с

Аудіо # 1:
мова: українська
переклад: професійний дубльований | студія Pie Post Production
кодек: 2.0
бітрейт: 192 кб/с

Аудіо # 2:
мова: англійська
переклад: оригінал
кодек: 5.1
бітрейт: 1509 кб/с

Субтитри:
мова: англійська
тип: програмні (м'які)
формат: *.srt
Info
Код:

General
Unique ID                   : 122692634137039450166875155193005260431 (0x5C4DBDE6DE64CE72B5BE0EE8F182BE8F)
Complete name               : S:\» HD українською » Фільми в HD\Фантастика\Serenity (2019) 1080P [UKR_ENG] [Hurtom].
Format                      :
Format version              : Version 4
File size                   : 11.8 GiB
Duration                    : 1 h 46 min
Overall bit rate            : 16.0 Mb/s
Movie name                  : Serenity (2019) 1080P [UKR_ENG] [Hurtom]
Encoded date                : UTC 2019-03-05 08:57:19
Writing application         : v30.1.0 ('Forever And More') 64-bit
Writing library             : libebml v1.3.6 + v1.4.9
Cover                       : Yes
Attachments                 : cover.jpg

Video
ID                          : 1
Format                      : AVC
Format/Info                 : Advanced Video Codec
Format profile              : [email protected]
Format settings             : CABAC / 5 Ref Frames
Format settings, CABAC      : Yes
Format settings, ReFrames   : 5 frames
Codec ID                    : V_MPEG4/ISO/AVC
Duration                    : 1 h 46 min
Bit rate                    : 14.3 Mb/s
Width                       : 1 920 pixels
Height                      : 804 pixels
Display aspect ratio        : 2.40:1
Frame rate mode             : Constant
Frame rate                  : 23.976 (24000/1001) FPS
Color space                 : YUV
Chroma subsampling          : 4:2:0
Bit depth                   : 8 bits
Scan type                   : Progressive
Bits/(Pixel*Frame)          : 0.386
Stream size                 : 10.6 GiB (89%)
Writing library             : core 157 r2935+3 (master: 545de2f / tmod: 0f48dd4) [X86_64]
Encoding settings           : cabac=1 / ref=5 / deblock=1:-3:-3 / analyse=0x3:0x133 / me=umh / subme=11 / psy=1 / psy_rd=1.05:0.15 / mixed_ref=1 / me_range=48 / chroma_me=1 / trellis=2 / 8x8dct=1 / cqm=0 / deadzone=6,6 / fast_pskip=0 / chroma_qp_offset=-3 / threads=25 / lookahead_threads=6 / sliced_threads=0 / nr=0 / decimate=0 / interlaced=0 / bluray_compat=0 / constrained_intra=0 / bframes=10 / b_pyramid=2 / b_adapt=2 / b_bias=0 / direct=3 / weightb=1 / open_gop=0 / weightp=2 / keyint=250 / keyint_min=23 / scenecut=40 / intra_refresh=0 / rc_lookahead=60 / rc=crf / mbtree=0 / crf=17.0 / qcomp=0.70 / qpmin=0 / qpmax=69 / qpstep=4 / vbv_maxrate=62500 / vbv_bufsize=78125 / crf_max=0.0 / nal_hrd=none / filler=0 / ip_ratio=1.25 / pb_ratio=1.20 / aq=3:0.70
Language                    : English
Default                     : Yes
Forced                      : No

Audio #1
ID                          : 2
Format                      : AC-3
Format/Info                 : Audio Coding 3
Commercial name             : Dolby Digital
Codec ID                    : A_AC3
Duration                    : 1 h 46 min
Bit rate mode               : Constant
Bit rate                    : 192 kb/s
Channel(s)                  : 2 channels
Channel layout              : L R
Sampling rate               : 48.0 kHz
Frame rate                  : 31.250 FPS (1536 SPF)
Bit depth                   : 16 bits
Compression mode            : Lossy
Stream size                 : 146 MiB (1%)
Title                       : 2.0 @ 192 kbps
Language                    : Ukrainian
Service kind                : Complete Main
Default                     : Yes
Forced                      : Yes

Audio #2
ID                          : 3
Format                      :
Format/Info                 : Digital Theater Systems
Codec ID                    : A_DTS
Duration                    : 1 h 46 min
Bit rate mode               : Constant
Bit rate                    : 1 509 kb/s
Channel(s)                  : 6 channels
Channel layout              : C L R Ls Rs LFE
Sampling rate               : 48.0 kHz
Frame rate                  : 93.750 FPS (512 SPF)
Bit depth                   : 24 bits
Compression mode            : Lossy
Stream size                 : 1.12 GiB (9%)
Language                    : English
Default                     : No
Forced                      : No

Text
ID                          : 4
Format                      : UTF-8
Codec ID                    : S_TEXT/UTF8
Codec ID/Info               : UTF-8 Plain Text
Duration                    : 1 h 38 min
Bit rate                    : 58 b/s
Count of elements           : 1130
Stream size                 : 42.4 KiB (0%)
Title                       : Full
Language                    : English
Default                     : No
Forced                      : No

Menu
00:00:00.000                : en:Chapter 01
00:01:55.198                : en:Chapter 02
00:09:35.784                : en:Chapter 03
00:19:25.039                : en:Chapter 04
00:34:03.750                : en:Chapter 05
00:46:53.853                : en:Chapter 06
00:56:48.947                : en:Chapter 07
01:04:42.295                : en:Chapter 08
01:13:32.366                : en:Chapter 09
01:22:06.755                : en:Chapter 10
01:34:41.676                : en:Chapter 11
01:40:29.065                : en:Chapter 12


Джерело: &
Особиста оцінка: 0 - не дивився


 Трекер:    Зареєстрований   

Завантажити / скачати фільм українською



відео для новачків



 Зареєстрований:   2019-03-05 12:23
 Розмір:   11.85 GB 
 Оцінка фільму:   7.9/10 (Голосів: 12)
   
Інші релізи
   Море спокуси / Serenity (2019) 1080p H.265 Ukr/Eng | Sub Eng -Star-Lord-  19 / 1   5.71 GB   2019-03-05 21:50 
   Море спокуси / Serenity (2019) Remux 1080p Ukr/Eng | Sub Eng staf777  20 / 0   21.24 GB   2019-03-05 16:41 
   Море спокуси / Serenity (2019) 720p Ukr/Eng | Sub Eng 11FrYkT  47 / 0   5.3 GB   2019-03-05 07:27 
   Море спокуси / Serenity (2019) AVC Ukr/Eng | Sub Eng 11FrYkT  165 / 1   1.79 GB   2019-03-05 07:25 
   Море спокуси / Serenity (2019) Ukr/Eng uafilm.tv  98 / 0   1.48 GB   2019-03-05 07:10 
bot 
робот


З нами з: 30.09.07
Востаннє: 26.05.05
Повідомлень: 21065

2019-03-05 12:23  
Тему перенесено з Анонси релізів до форуму Фільми в HD


staf777

staf777 
Відео Гуртом - підтримка та поширення
Відео Гуртом - підтримка та поширення


З нами з: 16.11.16
Востаннє: 22.03.19
Повідомлень: 2196

2019-03-05 12:25  
Вечором ремукс 
Cerguk 
Свій


З нами з: 30.09.09
Востаннє: 22.03.19
Повідомлень: 57

2019-03-05 22:55  
Чудовий фільм ! Прекрасна гра акторів. Неочікуваний розвиток історії. Давно таких фільмів не було, однозначно рекомендую !
vovang6 
Поважний учасник


З нами з: 27.08.12
Востаннє: 22.03.19
Повідомлень: 189

2019-03-09 20:35  
Не найкращий фільм за останній час, але мені сподобався.
Цікава задумка, сенс зловив. Що не сподобалось, так це деяка загальна затягнутись. 6/10.

Ваш часовий пояс: GMT + 2 Години

Нова тема   Відповісти