Море спокуси / Serenity (2019) Remux 1080p Ukr/Eng | Sub Eng

Нові коментарі

Нова тема   Відповісти
Автор Повідомлення
staf777 
Відео Гуртом - підтримка та поширення
Відео Гуртом - підтримка та поширення


З нами з: 16.11.16
Востаннє: 22.03.19
Повідомлень: 2196

2019-03-05 12:10  
Море спокуси / Serenity (2019) Remux 1080p Ukr/Eng | Sub Eng


«Залишиться в живих лиш той, хто грає за правилами»



Жанр: детектив, драма, фантастика, трилер
Країна: США



Кінокомпанія: Global Road Entertainment, IM Global, Shoebox Films, Starlings Entertainment
Режисер: Стівен Найт
Актори: Меттью МакКонахі, Енн Гетевей, Дайан Лейн, Джейсон Кларк, Джимон Хунсу, Джеремі Стронг, Шарлотта Батлер, Девід Батлер, Рафаель Сайег, Майкл Річард

Сюжет:
Головний герой – суворий рибалка з острова Плімут на ім’я Бейкер Ділл. Він заробляє тим, що розважає риболовлею туристів, а у вільний час переслідує одну особливу рибу - величезного коропа, що вже кілька разів зривався з його гачка. Колись давно, в минулому житті, у нього були дружина і син, ось тільки поки він воював в Іраку, дружина пішла від Бейкера до жорстокого мільярдера. Одного разу вона якимось чином знаходить Бейкера і скаржиться, що чоловік тероризує і її та сина. Вона просить колишнього чоловіка «розібратися» з негідником та вбити його, поки той буде рибалити у відкритому морі…


Тривалість: 01:46:00
Якість: Remux 1080p

Відео:
кодек:
розмір кадру: 1920x1080
бітрейт: 25 Mб/с

Аудіо # 1:
мова: українська
переклад: професійний дубльований | студія Pie Post Production
кодек: 2.0
бітрейт: 192 кб/с

Аудіо # 2:
мова: англійська
переклад: оригінал
кодек: -HD MA 5.1
бітрейт: 3445 кб/с

Субтитри:
мова: англійська
тип: програмні (м'які)
формат: *.srt
Info
Код:

General
Unique ID                   : 239628530623102398905079127742075702144 (0xB446C6B9588FCAF42CDA475539910B80)
Complete name               : S:\» HD українською » Фільми в HD\Фантастика\Serenity (2019) Remux 1080p [UKR_ENG] [Hurtom].
Format                      :
Format version              : Version 4
File size                   : 21.2 GiB
Duration                    : 1 h 46 min
Overall bit rate mode       : Variable
Overall bit rate            : 28.7 Mb/s
Movie name                  : Serenity (2019) Remux 1080p [UKR_ENG] [Hurtom]
Encoded date                : UTC 2019-03-05 13:39:00
Writing application         : v30.1.0 ('Forever And More') 64-bit
Writing library             : libebml v1.3.6 + v1.4.9
Cover                       : Yes
Attachments                 : cover.jpg

Video
ID                          : 1
Format                      : AVC
Format/Info                 : Advanced Video Codec
Format profile              : [email protected]
Format settings             : CABAC / 4 Ref Frames
Format settings, CABAC      : Yes
Format settings, ReFrames   : 4 frames
Codec ID                    : V_MPEG4/ISO/AVC
Duration                    : 1 h 46 min
Bit rate mode               : Variable
Bit rate                    : 25.0 Mb/s
Maximum bit rate            : 30.0 Mb/s
Width                       : 1 920 pixels
Height                      : 1 080 pixels
Display aspect ratio        : 16:9
Frame rate mode             : Constant
Frame rate                  : 23.976 (24000/1001) FPS
Standard                    : NTSC
Color space                 : YUV
Chroma subsampling          : 4:2:0
Bit depth                   : 8 bits
Scan type                   : Progressive
Bits/(Pixel*Frame)          : 0.504
Stream size                 : 18.5 GiB (87%)
Title                       : Serenity.2019.1080p.BluRay.REMUX.AVC.-HD.MA.5.1-FGT
Language                    : English
Default                     : No
Forced                      : No
Color range                 : Limited
Color primaries             : BT.709
Transfer characteristics    : BT.709
Matrix coefficients         : BT.709

Audio #1
ID                          : 2
Format                      : AC-3
Format/Info                 : Audio Coding 3
Commercial name             : Dolby Digital
Codec ID                    : A_AC3
Duration                    : 1 h 46 min
Bit rate mode               : Constant
Bit rate                    : 192 kb/s
Channel(s)                  : 2 channels
Channel layout              : L R
Sampling rate               : 48.0 kHz
Frame rate                  : 31.250 FPS (1536 SPF)
Bit depth                   : 16 bits
Compression mode            : Lossy
Stream size                 : 146 MiB (1%)
Title                       : 2.0 @ 192 kbps
Language                    : Ukrainian
Service kind                : Complete Main
Default                     : Yes
Forced                      : Yes

Audio #2
ID                          : 3
Format                      : XLL
Format/Info                 : Digital Theater Systems
Commercial name             : -HD Master Audio
Codec ID                    : A_DTS
Duration                    : 1 h 46 min
Bit rate mode               : Variable
Bit rate                    : 3 445 kb/s
Channel(s)                  : 6 channels
Channel layout              : C L R Ls Rs LFE
Sampling rate               : 48.0 kHz
Frame rate                  : 93.750 FPS (512 SPF)
Bit depth                   : 24 bits
Compression mode            : Lossless
Stream size                 : 2.55 GiB (12%)
Title                       : Serenity.2019.1080p.BluRay.REMUX.AVC.-HD.MA.5.1-FGT
Language                    : English
Default                     : No
Forced                      : No

Text
ID                          : 4
Format                      : UTF-8
Codec ID                    : S_TEXT/UTF8
Codec ID/Info               : UTF-8 Plain Text
Duration                    : 1 h 38 min
Bit rate                    : 58 b/s
Count of elements           : 1130
Stream size                 : 42.4 KiB (0%)
Title                       : Full
Language                    : English
Default                     : No
Forced                      : No

Menu
00:00:00.000                : en:Chapter 01
00:01:55.198                : en:Chapter 02
00:09:35.658                : en:Chapter 03
00:19:25.038                : en:Chapter 04
00:34:03.750                : en:Chapter 05
00:46:53.852                : en:Chapter 06
00:56:48.947                : en:Chapter 07
01:04:42.295                : en:Chapter 08
01:13:32.199                : en:Chapter 09
01:22:06.671                : en:Chapter 10
01:34:41.676                : en:Chapter 11
01:40:29.064                : en:Chapter 12


Джерело: &
Особиста оцінка: 0 - не дивився


Золотий реліз (завантажене не впливає на рейтинг)
 Трекер:    Зареєстрований   

Завантажити / скачати фільм українською



відео для новачків



 Зареєстрований:   2019-03-05 16:41
 Розмір:   21.24 GB 
 Оцінка фільму:   7.1/10 (Голосів: 14)
   
Інші релізи
   Море спокуси / Serenity (2019) 1080p H.265 Ukr/Eng | Sub Eng -Star-Lord-  19 / 1   5.71 GB   2019-03-05 21:50 
   Море спокуси / Serenity (2019) 1080p Ukr/Eng | Sub Eng staf777  18 / 0   11.85 GB   2019-03-05 12:23 
   Море спокуси / Serenity (2019) 720p Ukr/Eng | Sub Eng 11FrYkT  47 / 0   5.3 GB   2019-03-05 07:27 
   Море спокуси / Serenity (2019) AVC Ukr/Eng | Sub Eng 11FrYkT  165 / 1   1.79 GB   2019-03-05 07:25 
   Море спокуси / Serenity (2019) Ukr/Eng uafilm.tv  98 / 0   1.48 GB   2019-03-05 07:10 
bot 
робот


З нами з: 30.09.07
Востаннє: 26.05.05
Повідомлень: 21065

2019-03-05 16:41  
Тему перенесено з Анонси релізів до форуму Фільми в HD


staf777

Ваш часовий пояс: GMT + 2 Години

Нова тема   Відповісти