Як навіжені / La pazza gioia (2016) 1080p Ukr/Ita

Нові коментарі

Нова тема   Відповісти
Автор Повідомлення
AngryBirdsUA 
Свій


З нами з: 24.02.10
Востаннє: 18.11.19
Повідомлень: 3147

2019-03-05 09:18  
Як навіжені / La pazza gioia (2016) 1080p Ukr/Ita

Як навіжені / La pazza gioia (2016) 1080p Ukr/Ita


Жанр: драма, комедія
Країна: Італія, Франція



Кінокомпанія: Lotus Productions, Manny Films, Rai Cinema
Режисер: Паоло Вірдзі
Актори: Валерія Бруні-Тедескі, Мікаела Рамаццотті, Валентина Карнелутті, Серджіо Альбеллі, Томмазо Раньо, Франческо Лаги

Сюжет:
Беатріче живе в психіатричній лікарні вільного типу в Тоскані. Жінка звикла до іншого, шикарного життя і тут страждає від браку спілкування і розваг. Одного разу в установу надходить новенька - Донателла, і Беатріче відразу вирішує стати їй подругою. Спочатку вона злегка докучає розмовами замкнутій дівчині, а потім і зовсім підбиває на втечу.


Тривалість: 01:56:04
Якість:
Відео:
кодек:
розмір кадру: 1920 х 808
бітрейт: 9278 кб/с

Аудіо # 1:
мова: українська
переклад: багатоголосий закадровий
кодек: 5.1
бітрейт: 448 кб/с

Аудіо # 2:
мова: італійська
переклад: оригінал
кодек: 5.1
бітрейт: 1509 кб/с
Info:
General
Unique ID : 37326076881601530695944862786796166185 (0x1C14BDACC1348F28759D922589349C29)
Complete name : J:\La pazza gioia (2016) 1080p [Ukr. Ita] [Hurtom].
Format :
Format version : Version 4
File size : 9.11 GiB
Duration : 1 h 56 min
Overall bit rate : 11.2 Mb/s
Encoded date : UTC 2019-03-05 06:56:56
Writing application : v31.0.0 ('Dolores In A Shoestand') 64-bit
Writing library : libebml v1.3.6 + v1.4.9

Video
ID : 1
Format : AVC
Format/Info : Advanced Video Codec
Format profile : [email protected]
Format settings : CABAC / 5 Ref Frames
Format settings, CABAC : Yes
Format settings, ReFrames : 5 frames
Codec ID : V_MPEG4/ISO/AVC
Duration : 1 h 56 min
Bit rate : 9 278 kb/s
Width : 1 920 pixels
Height : 808 pixels
Display aspect ratio : 2.40:1
Frame rate mode : Constant
Frame rate : 23.976 FPS
Color space : YUV
Chroma subsampling : 4:2:0
Bit depth : 8 bits
Scan type : Progressive
Bits/(Pixel*Frame) : 0.249
Stream size : 7.52 GiB (83%)
Writing library : core 148 r2705 3f5ed56
Encoding settings : cabac=1 / ref=5 / deblock=1:0:0 / analyse=0x3:0x133 / me=umh / subme=9 / psy=1 / psy_rd=1.00:0.00 / mixed_ref=1 / me_range=16 / chroma_me=1 / trellis=1 / 8x8dct=1 / cqm=0 / deadzone=21,11 / fast_pskip=0 / chroma_qp_offset=-2 / threads=12 / lookahead_threads=1 / sliced_threads=0 / nr=0 / decimate=1 / interlaced=0 / bluray_compat=0 / constrained_intra=0 / bframes=3 / b_pyramid=2 / b_adapt=2 / b_bias=0 / direct=3 / weightb=1 / open_gop=0 / weightp=2 / keyint=250 / keyint_min=23 / scenecut=40 / intra_refresh=0 / rc_lookahead=50 / rc=2pass / mbtree=1 / bitrate=9278 / ratetol=1.0 / qcomp=0.60 / qpmin=0 / qpmax=69 / qpstep=4 / cplxblur=20.0 / qblur=0.5 / ip_ratio=1.40 / aq=1:1.00
Language : English
Default : Yes
Forced : No

Audio #1
ID : 2
Format : AC-3
Format/Info : Audio Coding 3
Commercial name : Dolby Digital
Codec ID : A_AC3
Duration : 1 h 56 min
Bit rate mode : Constant
Bit rate : 448 kb/s
Channel(s) : 6 channels
Channel layout : L R C LFE Ls Rs
Sampling rate : 48.0 kHz
Frame rate : 31.250 FPS (1536 SPF)
Bit depth : 16 bits
Compression mode : Lossy
Stream size : 372 MiB (4%)
Language : Ukrainian
Service kind : Complete Main
Default : Yes
Forced : Yes

Audio #2
ID : 3
Format :
Format/Info : Digital Theater Systems
Codec ID : A_DTS
Duration : 1 h 56 min
Bit rate mode : Constant
Bit rate : 1 509 kb/s
Channel(s) : 6 channels
Channel layout : C L R Ls Rs LFE
Sampling rate : 48.0 kHz
Frame rate : 93.750 FPS (512 SPF)
Bit depth : 24 bits
Compression mode : Lossy
Stream size : 1.22 GiB (13%)
Language : Italian
Default : No
Forced : No


Джерело:


 Трекер:    Зареєстрований   

Завантажити / скачати фільм українською



відео для новачків



 Зареєстрований:   2019-03-05 09:18
 Розмір:   9.11 GB 
 Оцінка фільму:   8.8/10 (Голосів: 8)
   
Інші релізи
   Як навіжені / La pazza gioia (2016) 720p Ukr/Ita | Sub Eng 11FrYkT  2 / 0   4.97 GB   2019-03-09 17:08 
   Як навіжені / La pazza gioia (2016) AVC AngryBirdsUA  9 / 0   1.82 GB   2019-03-05 09:18 
   Як навіжені / La pazza gioia (2016) Ukr/Ita drop_plz  9 / 0   1.82 GB   2019-01-06 11:28 
ssTAss 
Модератор музики


З нами з: 05.07.08
Востаннє: 20.11.19
Повідомлень: 15580

2019-03-05 16:12  
AngryBirdsUA написано:
1080p Ukr/Ita

перенесіть в HD

bot 
робот


З нами з: 30.09.07
Востаннє: 26.05.05
Повідомлень: 22490

2019-03-05 16:22  
Тему перенесено з Фільми до форуму Фільми в HD


11FrYkT

waldi-hurtom 
VIP


З нами з: 07.10.12
Востаннє: 20.11.19
Повідомлень: 1043

2019-03-09 15:29  
Упс! Нарешті через 20 років після Феліні та Дзефірелі в Італії з'явився гарний режисер. Неймовірний фільм! 10 балів. Оце фільм про жінок, не з обдовбаними феміністками та захисницями прав тварин/пєдєрасів/жінок/трансгендерів - усіх одразу, але просто про жінок як про людей. Дякую за чудовий реліз!
P.S. Але італійська назва фільму більше пасує - Божевільна радість.

gesko 
Новенький


З нами з: 16.02.17
Востаннє: 20.11.19
Повідомлень: 18

2019-03-10 14:18  
а я вже почав забувати як смакує італійське... останній раз "було" з Беніньо у "Життя прекрасне"..
Ваш часовий пояс: GMT + 2 Години

Нова тема   Відповісти