Анонім (Анон) / Anon (2018) Remux 1080p Ukr/Eng | Sub Eng

Нові коментарі

Нова тема   Відповісти
Автор Повідомлення
staf777 
Відео Гуртом - підтримка та поширення
Відео Гуртом - підтримка та поширення


З нами з: 16.11.16
Востаннє: 26.04.19
Повідомлень: 2293

2019-03-04 23:14  
Анонім / Анон / Anon (2018) Remux 1080p Ukr/Eng | Sub Eng

Анонім (Анон) / Anon (2018) Remux 1080p Ukr/Eng | Sub Eng


Жанр: фантастика, трилер
Країна: Німеччина, США, Канада



Кінокомпанія: K5 Film, K5 International, K5 Media Group
Режисер: Ендрю Ніккол
Актори: Клайв Овен, Аманда Сейфрід, Колм Фіор, Соня Волгер, Марк О’Браєн, Джо Пінг, Іддо Голдберг

Сюжет:
Події розгортаються у фантастичному тоталітарному світі майбутнього. Усі люди знаходяться під всеохоплюючим контролем влади. Ніхто не має приватного життя чи неформальних стосунків. Усе про всіх відомо, а будь-які стосунки між людьми давно викорінено. Головний герой – поліцейський на ім'я Сол Фріленд (Клайв Овен). Він жорстоко та безжально бореться зі злочинністю, викорінюючи будь-яку непокору режиму. Про кожну людину, яку він бачить, він одразу ж отримує інформацію. Та якось на вулиці йому зустрілась дівчина (Аманда Сейфрід), досьє якої було порожнім. Її ніби не існувало в цьому світі. Ближче знайомство з дівчиною відкриває для Сола паралельний світ, про існування якого він не здогадувався.


Тривалість: 01:39:49
Якість: Remux 1080p
Відео:
кодек:
розмір кадру: 1920x1080
бітрейт: 21,9 Mб/с

Аудіо # 1:
мова: українська
переклад: професійний дубльований | студія Tretyakoff production
кодек: 2.0 (стерео)
бітрейт: 192 кб/с

Аудіо # 2:
мова: англійська
переклад: оригінал
кодек: -HD MA 5.1
бітрейт: 1272 кб/с

Джерело озвучення:


Субтитри:
мова: англійська
тип: програмні (м'які)
формат: *.srt
Info
General
Unique ID : 280105736268414968546544962979184909894 (0xD2BA670AB98C50623C54D26D44561E46)
Complete name : S:\» HD українською » Фільми в HD\Фантастика\Anon (2018) Remux 1080p [Ukr, Eng, sub Eng][Hurtom].
Format :
Format version : Version 4
File size : 16.3 GiB
Duration : 1 h 39 min
Overall bit rate mode : Variable
Overall bit rate : 23.4 Mb/s
Movie name : Anon (2018) Remux 1080p [Ukr, Eng, sub Eng][Hurtom]
Encoded date : UTC 2019-03-04 20:58:09
Writing application : v30.1.0 ('Forever And More') 64-bit
Writing library : libebml v1.3.6 + v1.4.9
Cover : Yes
Attachments : cover.jpg

Video
ID : 1
Format : AVC
Format/Info : Advanced Video Codec
Format profile : [email protected]
Format settings : CABAC / 4 Ref Frames
Format settings, CABAC : Yes
Format settings, ReFrames : 4 frames
Codec ID : V_MPEG4/ISO/AVC
Duration : 1 h 39 min
Bit rate mode : Variable
Bit rate : 21.9 Mb/s
Maximum bit rate : 30.0 Mb/s
Width : 1 920 pixels
Height : 1 080 pixels
Display aspect ratio : 16:9
Frame rate mode : Constant
Frame rate : 23.976 (24000/1001) FPS
Standard : NTSC
Color space : YUV
Chroma subsampling : 4:2:0
Bit depth : 8 bits
Scan type : Progressive
Bits/(Pixel*Frame) : 0.441
Stream size : 15.3 GiB (94%)
Title : Anon.2018.Remux..Master5
Default : Yes
Forced : No
Color range : Limited
Color primaries : BT.709
Transfer characteristics : BT.709
Matrix coefficients : BT.709

Audio #1
ID : 2
Format : AC-3
Format/Info : Audio Coding 3
Commercial name : Dolby Digital
Codec ID : A_AC3
Duration : 1 h 39 min
Bit rate mode : Constant
Bit rate : 192 kb/s
Channel(s) : 2 channels
Channel layout : L R
Sampling rate : 48.0 kHz
Frame rate : 31.250 FPS (1536 SPF)
Bit depth : 16 bits
Compression mode : Lossy
Stream size : 137 MiB (1%)
Language : Ukrainian
Service kind : Complete Main
Default : Yes
Forced : Yes

Audio #2
ID : 3
Format : XLL
Format/Info : Digital Theater Systems
Commercial name : -HD Master Audio
Codec ID : A_DTS
Duration : 1 h 39 min
Bit rate mode : Variable
Bit rate : 1 272 kb/s
Channel(s) : 6 channels
Channel layout : C L R Ls Rs LFE
Sampling rate : 48.0 kHz
Frame rate : 93.750 FPS (512 SPF)
Bit depth : 16 bits
Compression mode : Lossless
Stream size : 908 MiB (5%)
Language : English
Default : No
Forced : No

Text
ID : 4
Format : UTF-8
Codec ID : S_TEXT/UTF8
Codec ID/Info : UTF-8 Plain Text
Duration : 1 h 28 min
Bit rate : 36 b/s
Count of elements : 861
Stream size : 24.1 KiB (0%)
Language : English
Default : No
Forced : No

Menu
00:00:00.000 : en:Глава 1
00:08:42.240 : en:Глава 2
00:13:57.480 : en:Глава 3
00:21:13.960 : en:Глава 4
00:28:03.160 : en:Глава 5
00:33:45.199 : en:Глава 6
00:39:19.879 : en:Глава 7
00:45:09.918 : en:Глава 8
00:50:54.638 : en:Глава 9
00:57:42.837 : en:Глава 10
01:05:00.396 : en:Глава 11
01:10:57.395 : en:Глава 12
01:17:53.235 : en:Глава 13
01:25:13.235 : en:Глава 14


Запис звуку з ТБ і зведення: Bohdan237
Джерело: &
Особиста оцінка: 0 - не дивився


Золотий реліз (завантажене не впливає на рейтинг)
 Трекер:    Зареєстрований   

Завантажити / скачати фільм українською



відео для новачків



 Зареєстрований:   2019-03-05 00:35
 Розмір:   16.33 GB 
 Оцінка фільму:   9.1/10 (Голосів: 26)
   
Інші релізи
   Анонім (Анон) / Anon (2018) AVC Ukr/Eng | Sub Eng Bohdan237  45 / 4   2 GB   2019-03-05 22:46 
   Анонім (Анон) / Anon (2018) 1080p H.265 Ukr/Eng | Sub Eng -Star-Lord-  9 / 0   2.68 GB   2019-03-05 22:32 
   Анонім (Анон) / Anon (2018) igor911  33 / 0   1.33 GB   2019-03-05 21:41 
   Анонім (Анон) / Anon (2018) 720p Ukr/Eng | Sub Eng staf777  21 / 0   2.9 GB   2019-03-04 23:10 
   Анонім (Анон) / Anon (2018) 1080p Ukr/Eng | Sub Eng staf777  22 / 0   7.88 GB   2019-03-04 22:53 
bot 
робот


З нами з: 30.09.07
Востаннє: 26.05.05
Повідомлень: 21250

2019-03-05 00:35  
Тему перенесено з Анонси релізів до форуму Фільми в HD


staf777

Едм 
VIP


З нами з: 18.05.08
Востаннє: 24.04.19
Повідомлень: 1236

2019-03-05 01:54  
ось, знову to do list для Китаю
Panther2214 
Поважний учасник


З нами з: 29.09.17
Востаннє: 26.04.19
Повідомлень: 236

2019-03-06 20:38  
Народ, як фільм?
Custo 12 
Свій


З нами з: 08.11.16
Востаннє: 23.04.19
Повідомлень: 88

2019-03-08 20:41  
Panther2214
Класний. Дуже сподобався. І Аманда дуже любиться як акторка.

Panther2214 
Поважний учасник


З нами з: 29.09.17
Востаннє: 26.04.19
Повідомлень: 236

2019-03-08 21:58  
Custo 12

Теж так думаю, Аманда запам'яталась ще з фільму "Час" - справила враження, завантажу пізніше та залишу відгук...

______________________________________________________________

Trance Progressive рулить.....

romaxa11 
Новенький


З нами з: 05.09.15
Востаннє: 25.04.19
Повідомлень: 17

2019-03-09 00:17  
Справді гарне кіно Нуар майбутнього.
Arete 
Новенький


З нами з: 23.09.16
Востаннє: 25.04.19
Повідомлень: 2

2019-03-10 13:30  
Розчарований, задумка хороша, а от реалізація бажає кращого. Дії слідчих на межі ідиотизму і це псує все враження від картини.
спойлер
От що повинен зробити слідчий якому замінюють картинку і він бачить не те що відбувається насправді? І він знає що те що він бачить - ілюзія. Викликати підмогу і сидіти на місці? Ні! Бігати з пістолетом, кудись палити, а потім ще й сісти за кермо. "Геніально"!

ppk21 
Свій


З нами з: 28.02.09
Востаннє: 24.04.19
Повідомлень: 145

2019-03-11 05:20  
Гарний кіберпанковий нуар. Ендрю Ніккол лайна не знімає (ну, майже...). Візуально фільм чудовий, зі стильною вишуканою картинкою. Сюжет так собі, але в цілому для жанру непогано. Навіть Клайв Овен зі своїм завжди понурим і пісним обличчям мене тут не дратує, як в інших фільмах
Ваш часовий пояс: GMT + 2 Години

Нова тема   Відповісти