Велика афера у маленькому містечку (An Almost Perfect Country) / Un paese quasi perfetto (2016) 1080p Ukr/Ita

Нові коментарі

Нова тема   Відповісти
Автор Повідомлення
AngryBirdsUA 
Свій


З нами з: 24.02.10
Востаннє: 22.11.19
Повідомлень: 3147

2019-03-04 21:58  
Велика афера у маленькому містечку / Un paese quasi perfetto (2016) 1080p Ukr/Ita | Sub Eng

Велика афера у маленькому містечку (An Almost Perfect Country) / Un paese quasi perfetto (2016) 1080p Ukr/Ita


Жанр: комедія
Країна: Італія



Кінокомпанія: Cattleya, Rai Cinema, Ministero dei Beni e delle Attività Culturali e del Turismo (MiBACT)
Режисер: Массімо Гаудіозо
Актори: Фабіо Воло, Сільвіо Орландо, Нандо Паоне, Карло Буччіроссо, Міріам Леоне, Джеа Мартіре, Марія Пайато, Франческо Де Віто

Сюжет:
Для жителів маленького містечка, загубленого в Доломітових Альпах, відкриття фабрики – надія на порятунок від тотального безробіття. Але щоб фабрика пройшла атестацію, в її штаті повинен бути лікар. Волею випадку опинився в цій глушині естетичний хірург з Мілану опиняється єдиним кандидатом... Чи зможе рафінований доктор, який звик до розкішного життя та клієнтів зовсім іншого рівня, винести відсутність вайфая та суші-барів? Місцевим доведеться проявити винахідливість, довівши гостю – він виявився в кращому місці на землі.


Тривалість: 01:37:55
Якість: 1080р

]Відео:
кодек:
розмір кадру: 1920 х 808
бітрейт: 9843 кб/с

Аудіо # 1:
мова: українська
переклад: багатоголосий закадровий
кодек: 5.1
бітрейт: 640 кб/с

Аудіо # 2:
мова: італійська
переклад: оригінал
кодек: 5.1
бітрейт: 1344 кб/с
Info:
General
Unique ID : 292786781743938083763951675589790815169 (0xDC44AEDAEEAC53164ADCBE91B5D053C1)
Complete name : J:\Un paese quasi perfetto (2016) 1080p [Ukr. Ita] [Hurtom].
Format :
Format version : Version 4
File size : 8.09 GiB
Duration : 1 h 37 min
Overall bit rate : 11.8 Mb/s
Encoded date : UTC 2019-03-04 19:39:44
Writing application : v31.0.0 ('Dolores In A Shoestand') 64-bit
Writing library : libebml v1.3.6 + v1.4.9

Video
ID : 1
Format : AVC
Format/Info : Advanced Video Codec
Format profile : [email protected]
Format settings : CABAC / 5 Ref Frames
Format settings, CABAC : Yes
Format settings, ReFrames : 5 frames
Codec ID : V_MPEG4/ISO/AVC
Duration : 1 h 37 min
Bit rate : 9 843 kb/s
Width : 1 920 pixels
Height : 808 pixels
Display aspect ratio : 2.40:1
Frame rate mode : Constant
Frame rate : 24.000 FPS
Color space : YUV
Chroma subsampling : 4:2:0
Bit depth : 8 bits
Scan type : Progressive
Bits/(Pixel*Frame) : 0.264
Stream size : 6.73 GiB (83%)
Writing library : core 148 r2692 64f4e24
Encoding settings : cabac=1 / ref=5 / deblock=1:0:0 / analyse=0x3:0x133 / me=umh / subme=9 / psy=1 / psy_rd=1.00:0.00 / mixed_ref=1 / me_range=16 / chroma_me=1 / trellis=1 / 8x8dct=1 / cqm=0 / deadzone=21,11 / fast_pskip=0 / chroma_qp_offset=-2 / threads=12 / lookahead_threads=1 / sliced_threads=0 / nr=0 / decimate=1 / interlaced=0 / bluray_compat=0 / constrained_intra=0 / bframes=3 / b_pyramid=2 / b_adapt=2 / b_bias=0 / direct=3 / weightb=1 / open_gop=0 / weightp=2 / keyint=250 / keyint_min=23 / scenecut=40 / intra_refresh=0 / rc_lookahead=50 / rc=2pass / mbtree=1 / bitrate=9843 / ratetol=1.0 / qcomp=0.60 / qpmin=0 / qpmax=69 / qpstep=4 / cplxblur=20.0 / qblur=0.5 / ip_ratio=1.40 / aq=1:1.00
Default : Yes
Forced : No

Audio #1
ID : 2
Format : AC-3
Format/Info : Audio Coding 3
Commercial name : Dolby Digital
Codec ID : A_AC3
Duration : 1 h 37 min
Bit rate mode : Constant
Bit rate : 640 kb/s
Channel(s) : 6 channels
Channel layout : L R C LFE Ls Rs
Sampling rate : 48.0 kHz
Frame rate : 31.250 FPS (1536 SPF)
Bit depth : 16 bits
Compression mode : Lossy
Stream size : 448 MiB (5%)
Language : Ukrainian
Service kind : Complete Main
Default : Yes
Forced : Yes

Audio #2
ID : 3
Format :
Format/Info : Digital Theater Systems
Codec ID : A_DTS
Duration : 1 h 37 min
Bit rate mode : Constant
Bit rate : 1 344 kb/s
Channel(s) : 6 channels
Channel layout : C L R Ls Rs LFE
Sampling rate : 48.0 kHz
Frame rate : 93.750 FPS (512 SPF)
Bit depth : 24 bits
Compression mode : Lossy
Stream size : 941 MiB (11%)
Language : Italian
Default : No
Forced : No


Подяка пану Hanway за синхронізацію доріжки.

Джерело:
Особиста оцінка: 0 - не дивився


 Трекер:    Зареєстрований   

Завантажити / скачати фільм українською



відео для новачків



 Зареєстрований:   2019-03-04 21:58
 Розмір:   8.09 GB 
 Оцінка фільму:   8.3/10 (Голосів: 4)
   
LesiaLesia 
Частий відвідувач


З нами з: 03.05.12
Востаннє: 18.11.19
Повідомлень: 38

2019-03-05 07:44  
Так це ж ремейк фільму Grand Seduction з Бренданом Глісоном
Dima_R 
Новенький


З нами з: 06.02.10
Востаннє: 02.11.19
Повідомлень: 8

2019-03-06 19:28  
LesiaLesia написано:
Так це ж ремейк фільму Grand Seduction з Бренданом Глісоном


Який в свою чергу є рімейком однойменного франко-канадського фільму 2003 року.
Wink (1)

Ваш часовий пояс: GMT + 2 Години

Нова тема   Відповісти