Анонім (Анон) / Anon (2018) 1080p Ukr/Eng | Sub Eng

Нові коментарі

Нова тема   Відповісти
Автор Повідомлення
staf777 
Відео Гуртом - підтримка та поширення
Відео Гуртом - підтримка та поширення


З нами з: 16.11.16
Востаннє: 23.08.19
Повідомлень: 2724

2019-03-04 22:53  
Анонім / Анон / Anon (2018) 1080p Ukr/Eng | Sub Eng

Анонім (Анон) / Anon (2018) 1080p Ukr/Eng | Sub Eng


Жанр: фантастика, трилер
Країна: Німеччина, США, Канада



Кінокомпанія: K5 Film, K5 International, K5 Media Group
Режисер: Ендрю Ніккол
Актори: Клайв Овен, Аманда Сейфрід, Колм Фіор, Соня Волгер, Марк О’Браєн, Джо Пінг, Іддо Голдберг

Сюжет:
Події розгортаються у фантастичному тоталітарному світі майбутнього. Усі люди знаходяться під всеохоплюючим контролем влади. Ніхто не має приватного життя чи неформальних стосунків. Усе про всіх відомо, а будь-які стосунки між людьми давно викорінено. Головний герой – поліцейський на ім'я Сол Фріленд (Клайв Овен). Він жорстоко та безжально бореться зі злочинністю, викорінюючи будь-яку непокору режиму. Про кожну людину, яку він бачить, він одразу ж отримує інформацію. Та якось на вулиці йому зустрілась дівчина (Аманда Сейфрід), досьє якої було порожнім. Її ніби не існувало в цьому світі. Ближче знайомство з дівчиною відкриває для Сола паралельний світ, про існування якого він не здогадувався.


Тривалість: 01:39:49
Якість: 1080p

Відео:
кодек:
розмір кадру: 1920x1040
бітрейт: 10400 кб/с

Аудіо # 1:
мова: українська
переклад: професійний дубльований | студія Tretyakoff production
кодек: 2.0 (стерео)
бітрейт: 192 кб/с

Аудіо # 2:
мова: англійська
переклад: оригінал
кодек: 5.1
бітрейт: 768 кб/с

Джерело озвучення:


Субтитри: (Full, SDH, SDH-Colored)
мова: англійська
тип: програмні (м'які)
формат: *.srt
Info
General
Unique ID : 91222255435884587753027423110676350187 (0x44A0C46FFDC3C599DF394E11448404EB)
Complete name : S:\» HD українською » Фільми в HD\Фантастика\Anon (2018) 1080p [Ukr, Eng, sub Eng][Hurtom].
Format :
Format version : Version 4
File size : 7.88 GiB
Duration : 1 h 39 min
Overall bit rate : 11.3 Mb/s
Movie name : Anon (2018) 1080p [Ukr, Eng, sub Eng][Hurtom]
Encoded date : UTC 2019-03-04 19:43:22
Writing application : v30.1.0 ('Forever And More') 64-bit
Writing library : libebml v1.3.6 + v1.4.9
Cover : Yes
Attachments : cover.jpg

Video
ID : 1
Format : AVC
Format/Info : Advanced Video Codec
Format profile : [email protected]
Format settings : CABAC / 4 Ref Frames
Format settings, CABAC : Yes
Format settings, ReFrames : 4 frames
Codec ID : V_MPEG4/ISO/AVC
Duration : 1 h 39 min
Bit rate : 10.4 Mb/s
Width : 1 920 pixels
Height : 1 040 pixels
Display aspect ratio : 1.85:1
Frame rate mode : Constant
Frame rate : 23.976 (24000/1001) FPS
Color space : YUV
Chroma subsampling : 4:2:0
Bit depth : 8 bits
Scan type : Progressive
Bits/(Pixel*Frame) : 0.216
Stream size : 7.21 GiB (91%)
Title : Anon.2018...Master5
Writing library : core 148 r2705 3f5ed56
Encoding settings : cabac=1 / ref=4 / deblock=1:-2:-2 / analyse=0x3:0x133 / me=umh / subme=11 / psy=1 / psy_rd=1.20:0.05 / mixed_ref=1 / me_range=32 / chroma_me=1 / trellis=2 / 8x8dct=1 / cqm=0 / deadzone=21,11 / fast_pskip=0 / chroma_qp_offset=-3 / threads=12 / lookahead_threads=2 / sliced_threads=0 / nr=0 / decimate=0 / interlaced=0 / bluray_compat=0 / constrained_intra=0 / bframes=8 / b_pyramid=2 / b_adapt=2 / b_bias=0 / direct=3 / weightb=1 / open_gop=0 / weightp=2 / keyint=240 / keyint_min=23 / scenecut=40 / intra_refresh=0 / rc_lookahead=50 / rc=2pass / mbtree=0 / bitrate=10350 / ratetol=1.0 / qcomp=0.60 / qpmin=0 / qpmax=51 / qpstep=4 / cplxblur=20.0 / qblur=0.5 / vbv_maxrate=50000 / vbv_bufsize=62500 / nal_hrd=none / filler=0 / ip_ratio=1.40 / pb_ratio=1.30 / aq=3:0.80
Language : English
Default : Yes
Forced : No

Audio #1
ID : 2
Format : AC-3
Format/Info : Audio Coding 3
Commercial name : Dolby Digital
Codec ID : A_AC3
Duration : 1 h 39 min
Bit rate mode : Constant
Bit rate : 192 kb/s
Channel(s) : 2 channels
Channel layout : L R
Sampling rate : 48.0 kHz
Frame rate : 31.250 FPS (1536 SPF)
Bit depth : 16 bits
Compression mode : Lossy
Stream size : 137 MiB (2%)
Title : Tretyakoff production
Language : Ukrainian
Service kind : Complete Main
Default : Yes
Forced : Yes

Audio #2
ID : 3
Format :
Format/Info : Digital Theater Systems
Codec ID : A_DTS
Duration : 1 h 39 min
Bit rate mode : Constant
Bit rate : 768 kb/s
Channel(s) : 6 channels
Channel layout : C L R Ls Rs LFE
Sampling rate : 48.0 kHz
Frame rate : 93.750 FPS (512 SPF)
Bit depth : 16 bits
Compression mode : Lossy
Stream size : 548 MiB (7%)
Title : Original
Language : English
Default : No
Forced : No

Text #1
ID : 4
Format : UTF-8
Codec ID : S_TEXT/UTF8
Codec ID/Info : UTF-8 Plain Text
Duration : 1 h 28 min
Bit rate : 36 b/s
Count of elements : 861
Stream size : 24.1 KiB (0%)
Title : Full
Language : English
Default : No
Forced : No

Text #2
ID : 5
Format : UTF-8
Codec ID : S_TEXT/UTF8
Codec ID/Info : UTF-8 Plain Text
Duration : 1 h 29 min
Bit rate : 38 b/s
Count of elements : 918
Stream size : 25.2 KiB (0%)
Title : SDH
Language : English
Default : No
Forced : No

Text #3
ID : 6
Format : UTF-8
Codec ID : S_TEXT/UTF8
Codec ID/Info : UTF-8 Plain Text
Duration : 1 h 29 min
Bit rate : 48 b/s
Count of elements : 912
Stream size : 31.6 KiB (0%)
Title : SDH-Colored
Language : English
Default : No
Forced : No

Menu
00:00:00.000 : en:Chapter 01
00:21:58.900 : en:Chapter 02
00:31:47.614 : en:Chapter 03
00:41:29.277 : en:Chapter 04
01:01:34.523 : en:Chapter 05
01:14:49.818 : en:Chapter 06
01:22:25.774 : en:Chapter 07
01:32:05.853 : en:Chapter 08



Запис звуку з ТБ і зведення: Bohdan237
Джерело: &
Особиста оцінка: 0 - не дивився


 Трекер:    Зареєстрований   

Завантажити / скачати фільм українською



відео для новачків



 Зареєстрований:   2019-03-04 22:53
 Розмір:   7.88 GB 
 Оцінка фільму:   8.8/10 (Голосів: 19)
   
Інші релізи
   Анонім (Анон) / Anon (2018) AVC Ukr/Eng | Sub Eng Bohdan237  28 / 0   2 GB   2019-03-05 22:46 
   Анонім (Анон) / Anon (2018) 1080p H.265 Ukr/Eng | Sub Eng -Star-Lord-  13 / 0   2.68 GB   2019-03-05 22:32 
   Анонім (Анон) / Anon (2018) igor911  15 / 0   1.33 GB   2019-03-05 21:41 
   Анонім (Анон) / Anon (2018) Remux 1080p Ukr/Eng | Sub Eng staf777  12 / 0   16.33 GB   2019-03-05 00:35 
   Анонім (Анон) / Anon (2018) 720p Ukr/Eng | Sub Eng staf777  16 / 0   2.9 GB   2019-03-04 23:10 
Ваш часовий пояс: GMT + 2 Години

Нова тема   Відповісти