Журнал Ліги Чемпіонів 2018/2019 (03.03.2019) 720р

Нові коментарі

Нова тема   Відповісти
Останній раз роздавалося vintyk (2019-08-20)
Автор Повідомлення
lokk234 
Новенький


З нами з: 05.03.14
Востаннє: 30.05.19
Повідомлень: 24

2019-03-04 19:32  
Журнал Ліги Чемпіонів 2018/2019 (03.03.2019) 720р

Журнал Ліги Чемпіонів 2018/2019 (03.03.2019) 720р


Жанр: спорт, футбол
Телеканали: Футбол 1/2
Опис:
До вашої уваги черговий випуск журналу найпрестижнішого футбольного турніру в світі, де ви зможете побачити анонс матчів-відповідей 1/8 фіналу цього ігрового тижня.


Тривалість: 00:22:39
Якість:
Відео:
кодек:
розмір кадру: 1280 х 720
бітрейт: 1802 кб/с

Аудіо:
мова: українська
коментатор: Микола Кравчук
кодек: 2.0
бітрейт: 128 кб/с
Скріншоти






Info:
General
Complete name : D:\Donowload\UCL4.mp4
Format : MPEG-4
Format profile : Base Media / Version 2
Codec ID : mp42
File size : 313 MiB
Duration : 22mn 39s
Overall bit rate : 1 933 Kbps
Encoded date : UTC 2019-03-04 15:33:56
Tagged date : UTC 2019-03-04 15:33:56
gsst : 0
gstd : 1360015

Video
ID : 1
Format : AVC
Format/Info : Advanced Video Codec
Format profile : [email protected]
Format settings, CABAC : Yes
Format settings, ReFrames : 3 frames
Format settings, GOP : M=4, N=32
Codec ID : avc1
Codec ID/Info : Advanced Video Coding
Duration : 22mn 39s
Bit rate mode : Variable
Bit rate : 1 802 Kbps
Width : 1 280 pixels
Height : 720 pixels
Display aspect ratio : 16:9
Frame rate mode : Constant
Frame rate : 25.000 fps
Color space : YUV
Chroma subsampling : 4:2:0
Bit depth : 8 bits
Scan type : Progressive
Bits/(Pixel*Frame) : 0.078
Stream size : 292 MiB (93%)

Audio
ID : 2
Format :
Format/Info : Advanced Audio Codec
Format profile : LC
Codec ID : 40
Duration : 22mn 39s
Bit rate mode : Variable
Bit rate : 128 Kbps
Channel(s) : 2 channels
Channel positions : Front: L R
Sampling rate : 44.1 KHz
Compression mode : Lossy
Stream size : 20.8 MiB (7%)
Title : ISO Media file produced by Google Inc. Created on: 03/04/2019.
Language : Ukrainian
Джерело:
Особиста оцінка: 10 - цікаво, для тих хто в темі


 Трекер:    Зареєстрований   

Завантажити / скачати торрент



відео для новачків



 Зареєстрований:   2019-03-04 19:32
 Розмір:   313 MB 
 Оцінка:   10/10 (Голосів: 2)
   
Ваш часовий пояс: GMT + 2 Години

Нова тема   Відповісти