Мисливець на відьму (1-14 з 26) / El Cazador de la Bruja / エル・カザド (2007) -AVC Jap | Sub Ukr/Eng

Нові коментарі

Нова тема   Відповісти
Автор Повідомлення
opa79 
Свій


З нами з: 01.12.11
Востаннє: 22.04.19
Повідомлень: 90

2019-03-04 15:02  
Мисливець на відьму (1-14 з 26) / El Cazador de la Bruja / エル・カザド (2007) -AVC Jap | Sub Ukr/Eng



Жанр: містика, бойовик, драма, детектив
Країна: Японія



Кінокомпанія: Bee Train
Режисер: Коїті Масімо
Актори (сейю):Шізука Іто, Ай Шіміцу, Ая Хісакава, Кента Міяке та ін.

Сюжет:
Доленосне знайомство Елліс, дівчини-утікачки з амнезією, неспокійним минулим і надприродними силами, і Наді, мисливця за головами, призводить до того, що двоє вирушають на південь разом у пошуках ключа до минулого Елліс. Єдині докази, які вони мають - це таємничий камінь, який Елліс подарувала ворожка, з якою вона жила, і відчуття Елліс, що вона повинна йти на південь.

Це - третій серіал з трилогії "Girls with guns" компанії Bee Train.
Перший - Нуар
Другий - Медлакс.

Тривалість: 00:24:20 кожна серія
Якість: -AVC
Відео:
кодек:
розмір кадру: 848x480
бітрейт: 1200 Кбіт/с
глибина: 8 біт

Аудіо:
мова: японська
переклад: оригінал
кодек: 2ch
бітрейт: 87.4 Кбіт/с
ч-та дискретизації (sampling rate): 48 kHz

Субтитри:
мова: українська
тип: програмні (м'які)
формат: *.
переклад: opa79 (з англійської)

Субтитри:
мова: англійська
тип: програмні (м'які)
формат: *.vob
переклад: взяті з DVD (джерело - Arigatou)
Список серій

1. Жінка-втікачка
2. Жінка, що чекає
3. Жінка, на яку йде дощ
4. Жінка з Ангелом
5. Жінка, що прикидається
6. Чоловік, що кохає
7. Чоловік, що працює
8. Жінка, яка бреше
9. Жінка, що копає
10. Чоловік, що живе з ангелом
11. Жінка, що чаклує
12. Чоловік, що стріляє
13. Жінка, що приховує
14. Кленовий лист
Info


General
Format :
Format version : Version 4
File size : 225 MiB
Duration : 24 min 22 s
Overall bit rate : 1 293 kb/s
Encoded date : UTC 2019-03-05 13:02:16
Writing application : v28.2.0 ('The Awakening') 64-bit
Writing library : libebml v1.3.6 + v1.4.9

Video
ID : 1
Format : AVC
Format/Info : Advanced Video Codec
Format profile : [email protected]
Format settings : CABAC / 8 Ref Frames
Format settings, CABAC : Yes
Format settings, ReFrames : 8 frames
Codec ID : V_MPEG4/ISO/AVC
Duration : 24 min 21 s
Bit rate : 1 200 kb/s
Nominal bit rate : 1 500 kb/s
Width : 848 pixels
Height : 480 pixels
Display aspect ratio : 16:9
Original display aspect ratio : 16:9
Frame rate mode : Constant
Frame rate : 23.976 (23976/1000) FPS
Original frame rate : 29.970 (30000/1001) FPS
Color space : YUV
Chroma subsampling : 4:2:0
Bit depth : 8 bits
Scan type : Progressive
Bits/(Pixel*Frame) : 0.123
Stream size : 209 MiB (93%)
Writing library : core 79 r1347 5ddd61b
Encoding settings : cabac=1 / ref=8 / deblock=1:-1:-1 / analyse=0x3:0x133 / me=tesa / subme=9 / psy=1 / psy_rd=1.0:0.0 / mixed_ref=1 / me_range=32 / chroma_me=1 / trellis=2 / 8x8dct=1 / cqm=0 / deadzone=21,11 / chroma_qp_offset=-2 / threads=6 / nr=0 / decimate=0 / mbaff=0 / constrained_intra=0 / bframes=4 / b_pyramid=0 / b_adapt=2 / b_bias=0 / direct=3 / wpredb=1 / wpredp=2 / keyint=250 / keyint_min=25 / scenecut=40 / rc_lookahead=40 / rc=2pass / mbtree=1 / bitrate=1500 / ratetol=1.0 / qcomp=0.60 / qpmin=10 / qpmax=51 / qpstep=4 / cplxblur=20.0 / qblur=0.5 / ip_ratio=1.40 / aq=1:1.00
Default : Yes
Forced : No

Audio
ID : 2
Format : LC SBR
Format/Info : Advanced Audio Codec Low Complexity with Spectral Band Replication
Commercial name : HE-
Format settings : Explicit
Codec ID : A_AAC-2
Duration : 24 min 22 s
Bit rate : 87.4 kb/s
Channel(s) : 2 channels
Channel layout : L R
Sampling rate : 48.0 kHz
Frame rate : 23.438 FPS (2048 SPF)
Compression mode : Lossy
Stream size : 15.2 MiB (7%)
Title : Japanese (2.0)
Language : Japanese
Default : No
Forced : No

Text #1
ID : 3
Format :
Codec ID : S_TEXT/
Codec ID/Info : Advanced Sub Station Alpha
Duration : 24 min 19 s
Bit rate : 116 b/s
Count of elements : 323
Compression mode : Lossless
Stream size : 20.7 KiB (0%)
Title : Україньска (opa79)
Language : Ukrainian
Default : Yes
Forced : No

Text #2
ID : 4
Format : VobSub
Muxing mode : zlib
Codec ID : S_VOBSUB
Codec ID/Info : Picture based subtitle format used on DVDs
Duration : 23 min 55 s
Bit rate : 3 860 b/s
Count of elements : 290
Stream size : 676 KiB (0%)
Title : English (DVD)
Language : English
Default : No
Forced : No

Menu
00:00:00.000 : en:Chapter 1
00:01:30.933 : en:Chapter 2
00:11:45.333 : en:Chapter 3
00:22:34.767 : en:Chapter 4
00:24:04.600 : en:Chapter 5
Скріншоти








Особиста оцінка: 9 з 10.


Золотий реліз (завантажене не впливає на рейтинг)
 Трекер:    Зареєстрований   

Завантажити / скачати аніме українською



відео для новачків



 Зареєстрований:   2019-04-15 11:21
 Розмір:   3.13 GB 
 Оцінка аніме:   10/10 (Голосів: 1)
   
11FrYkT 
Модератор відео


З нами з: 20.02.11
Востаннє: 25.04.19
Повідомлень: 5813

2019-03-05 13:46  
opa79 написано:

Аудіо:
мова: англійська
переклад: Arigatou
кодек: 6ch
бітрейт: 254 Кбіт/с
ч-та дискретизації (sampling rate): 48 kHz

Крім українських доріжок допускається тільки доріжка і коментарі мовою оригіналу. Заповнювати місця без перекладу дозволяється тільки іншою українською або оригінальною доріжкою

В заголовку вкажіть якість відео

opa79 
Свій


З нами з: 01.12.11
Востаннє: 22.04.19
Повідомлень: 90

2019-03-11 12:36  
Додано серії 3 і 4.
opa79 
Свій


З нами з: 01.12.11
Востаннє: 22.04.19
Повідомлень: 90

2019-03-19 11:28  
Додано серії 5 та 6.
opa79 
Свій


З нами з: 01.12.11
Востаннє: 22.04.19
Повідомлень: 90

2019-03-25 12:00  
Додано серії 7 та 8. Виправлено переклад серії 2. 
opa79 
Свій


З нами з: 01.12.11
Востаннє: 22.04.19
Повідомлень: 90

2019-04-01 10:51  
Додано серії 9 і 10.
opa79 
Свій


З нами з: 01.12.11
Востаннє: 22.04.19
Повідомлень: 90

2019-04-08 11:48  
Додано серії 11 і 12.
opa79 
Свій


З нами з: 01.12.11
Востаннє: 22.04.19
Повідомлень: 90

2019-04-15 11:28  
Додано серії 13 та 14.
Ваш часовий пояс: GMT + 2 Години

Нова тема   Відповісти