Випадковий чоловік / The Accidental Husband (2008) Remux 1080p 4xUkr/Eng | Sub Ukr/Eng

Нові коментарі

Нова тема   Відповісти
Автор Повідомлення
staf777 
Відео Гуртом - підтримка та поширення
Відео Гуртом - підтримка та поширення


З нами з: 16.11.16
Востаннє: 24.04.19
Повідомлень: 2284

2019-03-04 11:02  
Випадковий чоловік / The Accidental Husband (2008) Remux 1080p 4xUkr/Eng | Sub Ukr/Eng

Випадковий чоловік / The Accidental Husband (2008) Remux 1080p 4xUkr/Eng | Sub Ukr/Eng


Жанр: комедія, мелодрама
Країна: США, Ірландія



Кінокомпанія: Yari Film Group (YFG), Blumhouse Productions, Team Todd
Режисер: Ґріффін Данн / Griffin Dunne
Актори: Ума Турман / Uma Thurman, Колін Ферт / Colin Firth, Джефрі Дін Морґан / Jeffrey Dean Morgan, Сем Шепард / Sam Shepard, Ліндсей Слоун / Lindsay Sloane, Джастіна Мочадо / Justina Machado, Аджей Найду / Ajay Naidu, Джефрі Тедморі / Jeffrey Tedmori, Нік Сандов / Nick Sandow та інші.

Сюжет:
Емма Ллойд (Ума Турман) – успішна, красива та енергійна доктор психології, її "коник" - психологічні консультації жінок щодо відносин з чоловіками. З цієї тематики вона веде популярне радіошоу та видає книгу-бестселер. Емма розумна, серйозна і точно знає, про що говорить, даючи жінкам поради, як знайти свою любов, не витрачаючи даремно час на "недостойних чоловіків".

Але одного разу через пораду Емми скасовує весілля наречена простого пожежника Патріка Саллівана (Джефрі Дін Морґан), чим руйнує його надії. Хлопець настільки засмучений, що вирішує помститись Еммі та просить в свого сусіда зламати публічні записи і створити підроблений шлюбний сертифікат між ним і Еммою.
Тим часом Емма сама планує одружитись з Річардом (Колін Ферт), розумним і успішним видавцем, але раптом виявляється, що вона вже нібито одружена з Патріком…

Тепер єдиний вихід для Емми - знайти свого "чоловіка" і розставити всі крапки над "і"...


Тривалість: 01:30:36
Якість: Remux 1080p
Відео:
кодек:
розмір кадру: 1920x1080
бітрейт: 19.0 Mб/с

Аудіо # 1:
мова: українська
переклад: багатоголосий закадровий
кодек: 2.0 (стерео)
бітрейт: 192 кб/с

Аудіо # 2:
мова: українська
переклад: багатоголосий закадровий | Творче об'єднання "Дія"
кодек: 2.0 (стерео)
бітрейт: 192 кб/с
Інформація про озвучення:

Ролі озвучили: Джеффрі Дін Морґан — Михайло Жонін, Ума Турман — Наталя Ярошенко, Володимир Терещук, Лідія Муращенко і Дмитро Завадський

Фільм озвучено Творчим об'єднанням "Дія" на замовлення "JRC Film"
Аудіо # 3: ,
мова: українська
переклад: двоголосий закадровий
кодек: 2.0
бітрейт: 192 кб/с

Аудіо # 4:
мова: українська
переклад: двоголосий закадровий
ролі озвучили: Олег Лепенець та Людмила Ардельян
кодек: 2.0
бітрейт: 192 кб/с

Аудіо # 5:
мова: англійська
переклад: оригінал
кодек: TrueHD 5.1
бітрейт: 3452 кб/с

Субтитри # 1:
мова: українська
тип: програмні (м'які)
формат: *.srt
редагування/коригування, таймінг: igor911

Субтитри # 2:
мова: англійська
тип: програмні (м'які)
формат: *.srt
Info
Код:

General
Unique ID                   : 321321128817210854141262616050248146078 (0xF1BC32C8B9E2C98725FD3FF8592F5C9E)
Complete name               : S:\» HD українською » Фільми в HD\Комедія\The Accidental Husband (2008) Remux 1080p [4xUkr][Eng][Hurtom].
Format                      :
Format version              : Version 4
File size                   : 14.7 GiB
Duration                    : 1 h 30 min
Overall bit rate mode       : Variable
Overall bit rate            : 23.3 Mb/s
Movie name                  : The Accidental Husband (2008) Remux 1080p [4xUkr][Eng][Hurtom]
Encoded date                : UTC 2019-03-04 15:16:59
Writing application         : v30.1.0 ('Forever And More') 64-bit
Writing library             : libebml v1.3.6 + v1.4.9
Cover                       : Yes
Attachments                 : cover.jpg

Video
ID                          : 1
Format                      : AVC
Format/Info                 : Advanced Video Codec
Format profile              : [email protected]
Format settings             : CABAC / 4 Ref Frames
Format settings, CABAC      : Yes
Format settings, ReFrames   : 4 frames
Codec ID                    : V_MPEG4/ISO/AVC
Duration                    : 1 h 30 min
Bit rate mode               : Variable
Bit rate                    : 19.0 Mb/s
Maximum bit rate            : 33.0 Mb/s
Width                       : 1 920 pixels
Height                      : 1 080 pixels
Display aspect ratio        : 16:9
Frame rate mode             : Constant
Frame rate                  : 23.976 (24000/1001) FPS
Standard                    : NTSC
Color space                 : YUV
Chroma subsampling          : 4:2:0
Bit depth                   : 8 bits
Scan type                   : Progressive
Bits/(Pixel*Frame)          : 0.382
Stream size                 : 12.0 GiB (82%)
Title                       : 1920x1080p / 23,976 fps / 16:9 / High Profile 4.1, , ~19000 kbps
Default                     : Yes
Forced                      : No
Color range                 : Limited
Color primaries             : BT.709
Transfer characteristics    : BT.709
Matrix coefficients         : BT.709

Audio #1
ID                          : 2
Format                      : AC-3
Format/Info                 : Audio Coding 3
Commercial name             : Dolby Digital
Codec ID                    : A_AC3
Duration                    : 1 h 30 min
Bit rate mode               : Constant
Bit rate                    : 192 kb/s
Channel(s)                  : 2 channels
Channel layout              : L R
Sampling rate               : 48.0 kHz
Frame rate                  : 31.250 FPS (1536 SPF)
Bit depth                   : 16 bits
Compression mode            : Lossy
Stream size                 : 124 MiB (1%)
Title                       : 2.0 (стерео) - MVO-CINE+
Language                    : Ukrainian
Service kind                : Complete Main
Default                     : Yes
Forced                      : Yes

Audio #2
ID                          : 3
Format                      : AC-3
Format/Info                 : Audio Coding 3
Commercial name             : Dolby Digital
Codec ID                    : A_AC3
Duration                    : 1 h 30 min
Bit rate mode               : Constant
Bit rate                    : 192 kb/s
Channel(s)                  : 2 channels
Channel layout              : L R
Sampling rate               : 48.0 kHz
Frame rate                  : 31.250 FPS (1536 SPF)
Bit depth                   : 16 bits
Compression mode            : Lossy
Stream size                 : 124 MiB (1%)
Title                       : 2.0 (стерео) MVO-DVD
Language                    : Ukrainian
Service kind                : Complete Main
Default                     : No
Forced                      : No

Audio #3
ID                          : 4
Format                      : AC-3
Format/Info                 : Audio Coding 3
Commercial name             : Dolby Digital
Codec ID                    : A_AC3
Duration                    : 1 h 30 min
Bit rate mode               : Constant
Bit rate                    : 192 kb/s
Channel(s)                  : 2 channels
Channel layout              : L R
Sampling rate               : 48.0 kHz
Frame rate                  : 31.250 FPS (1536 SPF)
Bit depth                   : 16 bits
Compression mode            : Lossy
Stream size                 : 124 MiB (1%)
Title                       : K1-DVO
Language                    : Ukrainian
Service kind                : Complete Main
Default                     : No
Forced                      : No

Audio #4
ID                          : 5
Format                      : AC-3
Format/Info                 : Audio Coding 3
Commercial name             : Dolby Digital
Codec ID                    : A_AC3
Duration                    : 1 h 30 min
Bit rate mode               : Constant
Bit rate                    : 192 kb/s
Channel(s)                  : 2 channels
Channel layout              : L R
Sampling rate               : 48.0 kHz
Frame rate                  : 31.250 FPS (1536 SPF)
Bit depth                   : 16 bits
Compression mode            : Lossy
Stream size                 : 124 MiB (1%)
Title                       : DVO-TET
Language                    : Ukrainian
Service kind                : Complete Main
Default                     : No
Forced                      : No

Audio #5
ID                          : 6
Format                      : MLP FBA
Format/Info                 : Meridian Lossless Packing FBA
Commercial name             : Dolby TrueHD
Codec ID                    : A_TRUEHD
Duration                    : 1 h 30 min
Bit rate mode               : Variable
Bit rate                    : 3 452 kb/s
Maximum bit rate            : 5 247 kb/s
Channel(s)                  : 6 channels
Channel layout              : L R C LFE Ls Rs
Sampling rate               : 48.0 kHz
Frame rate                  : 1 200.000 FPS (40 SPF)
Compression mode            : Lossless
Stream size                 : 2.19 GiB (15%)
Title                       : Dolby TrueHD Audio 5.1
Language                    : English
Default                     : No
Forced                      : No

Text #1
ID                          : 7
Format                      : UTF-8
Codec ID                    : S_TEXT/UTF8
Codec ID/Info               : UTF-8 Plain Text
Duration                    : 1 h 30 min
Bit rate                    : 110 b/s
Count of elements           : 1080
Stream size                 : 72.9 KiB (0%)
Language                    : Ukrainian
Default                     : No
Forced                      : No

Text #2
ID                          : 8
Format                      : UTF-8
Codec ID                    : S_TEXT/UTF8
Codec ID/Info               : UTF-8 Plain Text
Duration                    : 1 h 23 min
Bit rate                    : 80 b/s
Count of elements           : 1544
Stream size                 : 49.1 KiB (0%)
Language                    : English
Default                     : No
Forced                      : No

Menu
00:00:00.000                : en:Chapter 1
00:08:28.633                : en:Chapter 2
00:15:17.917                : en:Chapter 3
00:23:32.202                : en:Chapter 4
00:31:04.196                : en:Chapter 5
00:40:46.736                : en:Chapter 6
00:49:33.971                : en:Chapter 7
00:55:11.475                : en:Chapter 8
01:03:58.918                : en:Chapter 9
01:11:04.093                : en:Chapter 10
01:19:10.955                : en:Chapter 11
01:23:55.030                : en:Chapter 12

Скріншоти





За допомогу в створенні реліза дякую пану igor911
Джерело: &
Подяка за роботу над українськими доріжками: Sando7, Arsenfpu, karvai0, anonymous, maksym1990, xslim, РОМЕО.


Золотий реліз (завантажене не впливає на рейтинг)
 Трекер:    Зареєстрований   

Завантажити / скачати фільм українською



відео для новачків



 Зареєстрований:   2019-03-04 18:55
 Розмір:   14.74 GB 
 Оцінка фільму:   8.7/10 (Голосів: 7)
   
bot 
робот


З нами з: 30.09.07
Востаннє: 26.05.05
Повідомлень: 21237

2019-03-04 18:55  
Тему перенесено з Анонси релізів до форуму Фільми в HD


staf777

Ваш часовий пояс: GMT + 2 Години

Нова тема   Відповісти