Бути чи не бути / To Be or Not to Be (1983) 1080p Ukr/Eng | Sub Eng

Нові коментарі

Нова тема   Відповісти
Автор Повідомлення
MakRA 
Поважний учасник


З нами з: 11.11.18
Востаннє: 23.04.19
Повідомлень: 174

2019-03-04 01:38  
Бути чи не бути / To Be or Not to Be (1983) 1080p Ukr/Eng | Sub Eng

Бути чи не бути / To Be or Not to Be (1983) 1080p Ukr/Eng | Sub Eng


Жанр: комедія, військовий
Країна: США



Кінокомпанія: Brooksfilms, Twentieth Century Fox
Режисер: Алан Джонсон [Alan Johnson]
Актори: Мел Брукс [Mel Brooks], Енн Бенкрофт [Anne Bancroft], Ронні Грехам [Ronny Graham], Джеймс Хаак [James Haake], Крістофер Ллойд [Christopher Lloyd], Чарльз Дурнінг [Charles Durning], Хосе Феррер [Jose Ferrer], Тім Матесон [Tim Matheson], Ерл Боен [Earl Boen].

Сюжет: 1939 рік, Варшава напередодні початку Другої світової війни. Фридерик Бронський (Мел Брукс) та його дружина Анна (Енн Бенкрофт) - власники водевільного театру, у якому також виступають у головних ролях. Пілот польської армії лейтенант Собінський (Тім Метісон) закоханий у Анну і відвідує усі її вистави. У театрі ставлять антинацистську п'єсу, але коли спалахує війна, її забороняють, і доводиться грати "Гамлета". З приходом нацистів лейтенант Собінський змушений покинути Варшаву. Та незабаром він повертається - його скинули на парашуті з секретним завданням…

Цікаве про фільм:

-За гумористичне трактування ролі полковника Ергарда, Чарльз Дернінг був номінований на премію Оскар за найкращу чоловічу роль другого плану.
-Коли автомобіль Бронського тягне кінь, можна побачити якусь лінію, яка використовується або, щоб тягнути коня вперед або, щоб допомогти коневі тягнути автомобіль.
-Коли лейтенанта Собінського скидають на парашуті, видно високі гірські хребти. У Польщі є гірська місцевість, але вона далеко від Варшави, до якої за змістом фільму лейтенант повинен дуже швидко добиратися пішки.
-Особистий літак Гітлера був німецький Junkers Ju 52, який вироблявся з осені 1933 року, а не американський пасажирський Ford Trimotor, що випускався у 1927-1933 рр.


Тривалість: 01:47:16
Якість: 1080p
Відео:
кодек:
розмір кадру: 1920 х 1080
бітрейт: 11 Мб/с

Аудіо # 1:
мова: українська
переклад: багатоголосий закадровий
кодек: 2.0
бітрейт: 192 kb/s

Аудіо # 2:
мова: англійська
переклад: оригінал
кодек: 5.1
бітрейт: 448 kb/s

Аудіо # 3:
мова: англійська
переклад: оригінал
кодек: 5.1
бітрейт: 1509 kb/s

Субтитри:
мова: англійська
тип: програмні (м'які)
формат: *.srt
Info
General
Unique ID : 164177100501467231400376689057986817134 (0x7B835C01E3EFA6CA5A6D1F4EFDB4AC6E)
Complete name : F:\Комедії\To Be or Not to Be (1983) 1080p UkrEng Sub Eng [Hurtom].
Format :
Format version : Version 4 / Version 2
File size : 9.85 GiB
Duration : 1 h 47 min
Overall bit rate : 13.2 Mb/s
Movie name : Бути чи не бути / To Be or Not to Be (1983) 1080p Ukr/Eng | Sub Eng [Hurtom]
Encoded date : UTC 2019-03-03 16:57:11
Writing application : v25.0.0 ('Prog Noir') 64-bit
Writing library : libebml v1.3.6 + v1.4.9
Attachments : Лог кодування.log

Video
ID : 1
Format : AVC
Format/Info : Advanced Video Codec
Format profile : [email protected]
Format settings, CABAC : Yes
Format settings, RefFrames : 4 frames
Codec ID : V_MPEG4/ISO/AVC
Duration : 1 h 47 min
Bit rate : 11.0 Mb/s
Width : 1 916 pixels
Height : 1 036 pixels
Display aspect ratio : 1.85:1
Frame rate mode : Constant
Frame rate : 23.976 (24000/1001) FPS
Color space : YUV
Chroma subsampling : 4:2:0
Bit depth : 8 bits
Scan type : Progressive
Bits/(Pixel*Frame) : 0.231
Stream size : 8.24 GiB (84%)
Title : To Be or Not to Be (1983) 1080p Ukr/Eng | Sub Eng [Hurtom]
Writing library : core 157 r2935 545de2f
Encoding settings : cabac=1 / ref=4 / deblock=1:-1:-1 / analyse=0x3:0x133 / me=umh / subme=11 / psy=1 / psy_rd=1.00:0.15 / mixed_ref=1 / me_range=64 / chroma_me=1 / trellis=2 / 8x8dct=1 / cqm=0 / deadzone=21,11 / fast_pskip=0 / chroma_qp_offset=-3 / threads=6 / lookahead_threads=1 / sliced_threads=0 / nr=0 / decimate=0 / interlaced=0 / bluray_compat=0 / constrained_intra=0 / bframes=16 / b_pyramid=2 / b_adapt=2 / b_bias=0 / direct=3 / weightb=1 / open_gop=0 / weightp=2 / keyint=240 / keyint_min=23 / scenecut=40 / intra_refresh=0 / rc_lookahead=60 / rc=2pass / mbtree=0 / bitrate=11000 / ratetol=1.0 / qcomp=0.60 / qpmin=0 / qpmax=69 / qpstep=4 / cplxblur=20.0 / qblur=0.5 / vbv_maxrate=50000 / vbv_bufsize=62500 / nal_hrd=none / filler=0 / ip_ratio=1.40 / pb_ratio=1.30 / aq=1:1.00
Language : Ukrainian
Default : Yes
Forced : No

Audio #1
ID : 2
Format : AC-3
Format/Info : Audio Coding 3
Format settings, Endianness : Big
Codec ID : A_AC3
Duration : 1 h 47 min
Bit rate mode : Constant
Bit rate : 192 kb/s
Channel(s) : 2 channels
Channel positions : Front: L R
Sampling rate : 48.0 kHz
Frame rate : 31.250 FPS (1536 SPF)
Bit depth : 16 bits
Compression mode : Lossy
Stream size : 147 MiB (1%)
Title : MVO
Language : Ukrainian
Service kind : Complete Main
Default : Yes
Forced : Yes

Audio #2
ID : 3
Format : AC-3
Format/Info : Audio Coding 3
Format settings, Endianness : Big
Codec ID : A_AC3
Duration : 1 h 47 min
Bit rate mode : Constant
Bit rate : 448 kb/s
Channel(s) : 6 channels
Channel positions : Front: L C R, Side: L R, LFE
Sampling rate : 48.0 kHz
Frame rate : 31.250 FPS (1536 SPF)
Bit depth : 16 bits
Compression mode : Lossy
Stream size : 344 MiB (3%)
Title : Original AC-3
Language : English
Service kind : Complete Main
Default : No
Forced : No

Audio #3
ID : 4
Format :
Format/Info : Digital Theater Systems
Mode : 16
Format settings, Endianness : Big
Codec ID : A_DTS
Duration : 1 h 47 min
Bit rate mode : Constant
Bit rate : 1 509 kb/s
Channel(s) : 6 channels
Channel positions : Front: L C R, Side: L R, LFE
Sampling rate : 48.0 kHz
Frame rate : 93.750 FPS (512 SPF)
Bit depth : 24 bits
Compression mode : Lossy
Stream size : 1.13 GiB (11%)
Title : Original
Language : English
Default : No
Forced : No

Text
ID : 5
Format : UTF-8
Codec ID : S_TEXT/UTF8
Codec ID/Info : UTF-8 Plain Text
Duration : 1 h 42 min
Bit rate : 81 b/s
Count of elements : 1576
Stream size : 61.2 KiB (0%)
Title : Eng
Language : English
Default : No
Forced : No

Menu
00:00:00.000 : :Main Titles
00:02:08.337 : :The Bronsky Theatre
00:07:51.012 : :A Secret Admirer
00:08:27.799 : :Naughty Nazis
00:13:05.243 : :An Assignation
00:22:19.505 : :It's War!
00:26:34.384 : :Messages to Poland
00:29:34.481 : :Something Is Wrong
00:38:54.749 : :Nazi Headquarters
00:44:09.772 : :Sweetheart
00:47:04.363 : :The Gestapo
00:59:22.976 : :Another Siletski
01:08:14.716 : :Sasha
01:12:44.944 : :Back to Nazi H.Q.
01:17:31.856 : :An Imposter
01:26:07.454 : :A Command Performance
01:33:49.374 : :Another Suitor
01:35:52.038 : :At the Airport
01:40:23.684 : :Is This England?
01:43:12.853 : :End Titles
Скріншоти
Джерело: &
За українську доріжку подяка п.: gig_Panas, taras1988_2008
Особиста оцінка: 10 - без зайвих вагань рекомендую всім!


Срібний реліз (на рейтинг впливає 50% завантаженого)
 Трекер:    Зареєстрований   

Завантажити / скачати фільм українською



відео для новачків



 Зареєстрований:   2019-03-04 01:38
 Розмір:   9.85 GB 
 Оцінка фільму:   8.3/10 (Голосів: 6)
   
Інші релізи
   Бути чи не бути / To Be or Not to Be (1983) sokeel  0 / 0   744 MB   2018-11-22 23:58 
   Бути чи не бути / To Be or Not to Be (1983) AVC Ukr/Eng | Sub Eng drop_plz  4 / 0   2.77 GB   2018-11-22 21:24 
   Бути чи не бути / To Be or Not to Be (1983) Ukr/Eng taras1988_2008  5 / 0   1.43 GB   2010-08-15 10:13 
Ваш часовий пояс: GMT + 2 Години

Нова тема   Відповісти