Такі красиві люди (2013) 1080p

Нові коментарі

Нова тема   Відповісти
Автор Повідомлення
wrongman 
Попереджень: 1
Попереджень: 1 


З нами з: 11.11.08
Востаннє: 19.08.20
Повідомлень: 179

2019-03-03 20:31  
Такі красиві люди (2013) 1080p

Такі красиві люди (2013) 1080p


Жанр: драма
Країна: Україна



Кінокомпанія: Кіностудія імені Олександра Довженка, "Їжак фільм", Держкіно України
Режисер: Дмитро Мойсеєв
Актори: Поліна Войневич — Марта, Костянтин Данилюк — Іван, Алла Бінєєва — Люба, Олег Стефан — Кирило, Станіслав Глушко — Славік, Михайло Савченко — роль другого плану, Михайло Жонін — роль другого плану, Олександр Ярема — роль другого плану, Василь Стьопкін — роль другого плану, Михайло Ігнатов — епізод, Олена Каплан — епізод, Жанна Богдевич — епізод, Олександр Моргацький — епізод, Дмитро Мойсеєв — епізод, Олексій Балашов — епізод.

Сюжет:
Холодне сонце, вітер, море, риба…

Дві подруги, Марта та Люба, втікаючи від метушні великого міста, оселились на березі моря якнайдалі від людей. Із Любою її щаслива родина: добрий, дивакуватий чоловік та восьмирічний син. У Марти — невдалий досвід у шлюбі, успіхи в рибацтві, піаніно та самотність. Разом вони влаштовують домашні вистави, читають вірші та слухають музику. Проте Марті не вистачає справжнього тепла. Так в її житті з'являється Іван, невдаха-письменник, якому належить вирішити, чи вартий він сильних почуттів та чи зможе він ще покохати.

Фільм «Такі красиві люди» схожий на японське хоку, що простими засобами передає сутність людського існування та яскравість почуттів.


Тривалість: 01:34:11
Якість: 1080p

Відео:
кодек:
розмір кадру: 1920 х 1080
бітрейт: 1467 кб/с

Аудіо:
мова: українська
переклад: оригінал
кодек: 2.0
бітрейт: 126 кб/с
Info

General
Format : MPEG-4
Format profile : Base Media
Codec ID : isom (isom/iso2/avc1/mp41)
File size : 1.05 GiB
Duration : 1 h 34 min
Overall bit rate : 1 599 kb/s
Writing application : Lavf57.2.100

Video
ID : 1
Format : AVC
Format/Info : Advanced Video Codec
Format profile : [email protected]
Format settings, CABAC : Yes
Format settings, RefFrames : 3 frames
Codec ID : avc1
Codec ID/Info : Advanced Video Coding
Duration : 1 h 34 min
Bit rate : 1 467 kb/s
Width : 1 920 pixels
Height : 1 080 pixels
Display aspect ratio : 16:9
Frame rate mode : Constant
Frame rate : 25.000 FPS
Color space : YUV
Chroma subsampling : 4:2:0
Bit depth : 8 bits
Scan type : Progressive
Bits/(Pixel*Frame) : 0.028
Stream size : 988 MiB (92%)
Color range : Limited
Color primaries : BT.709
Transfer characteristics : BT.709
Matrix coefficients : BT.709

Audio
ID : 2
Format :
Format/Info : Advanced Audio Codec
Format profile : LC
Codec ID : 40
Duration : 1 h 34 min
Bit rate mode : Constant
Bit rate : 126 kb/s
Channel(s) : 2 channels
Channel positions : Front: L R
Sampling rate : 44.1 kHz
Frame rate : 43.066 FPS (1024 SPF)
Compression mode : Lossy
Stream size : 84.6 MiB (8%)
Language : English
Default : Yes
Alternate group : 1
Скріншоти




Джерело:
Особиста оцінка: 10+



Золотий реліз (завантажене не впливає на рейтинг)
 Трекер:    Зареєстрований   

Завантажити / скачати український фільм



відео для новачків



 Зареєстрований:   2019-03-03 20:31
 Розмір:   1.05 GB 
 Оцінка фільму:   9.4/10 (Голосів: 41)
   
nataliksa 
Свій


З нами з: 18.04.14
Востаннє: 04.03.21
Повідомлень: 83

2019-03-09 11:47  
Дуже сподобалось. Атмосферна мелодрама,гарна гра акторів.
goodmann 
Новенький


З нами з: 15.01.19
Востаннє: 08.05.19
Повідомлень: 6

2019-03-10 20:16  
неймовірно насичений фільм)
ssTAss 
Модератор музики


З нами з: 05.07.08
Востаннє: 08.03.21
Повідомлень: 17447

2019-03-11 15:28  
Такий красивий фільм.
Просто, невимушено, душевно.
Трошки "напрягають" мова Марти і окорок, але загалом позитив. Крим, Азов, Франик.. такою хотілося б бачити нашу країну.
А під-час декламування вірша "Крила" Кирилом і його малим (другий скрін), в мне з обличчя не сходила усмішка. Ні. не сміх, а власне усмішка - добра і щира.... від вуха до вуха.
Такі красиві люди у такому красивому фільмі. Рекомендую.

Dert 
Частий відвідувач


З нами з: 01.01.09
Востаннє: 28.05.20
Повідомлень: 36

2019-03-18 22:59  
Боже, боже, які ми тонкі Happy такі тонкі що аж москаликам боїмось дати під зад.
Pavka 
Свій


З нами з: 05.11.07
Востаннє: 08.03.21
Повідомлень: 67

2019-04-18 14:05  
Дуже гарно! Фільм чудовий!
oucan 
Новенький


З нами з: 29.11.12
Востаннє: 03.03.21
Повідомлень: 4

2019-04-30 16:26  
Дуже якісна мелодрама. В ній багато рефлексій, багато невимовлених почуттів, які ховаються за стриманими діалогами. Є в ній щось і від Кім Кі Дука і від Муракамі. В колекцію!
Newdotsenko 
Новенький


З нами з: 19.03.16
Востаннє: 05.03.21
Повідомлень: 1

2019-05-28 11:12  
На мою думку, фільм спаскудили - у наявності були такі чудесні локації, ідея - можна було зробити цікаве атмосферне незалежне кіно, а як наслідок - маємо те, що маємо. Акторська гра головних персонажів просто жахлива - емоцій жодних, риси обличчя незмінні - другорядні персонажі часом перекривають своєю акторською грою головних.
[email protected] 
Частий відвідувач


З нами з: 27.11.15
Востаннє: 07.03.21
Повідомлень: 33

2019-07-01 19:20  
Хороша драма. Місцями може здатитися що фільм сируватий, але не забувайте, що кошторис 6кк грн і знято в Україні в 2013. Також може здатися, що актриса, яка грала Марту, переграє чи недограє. Мені тяжко зрозуміти так це чи така задумка авторів. А от актор, що грав Кирила порадував!)

Місцями картинки на екрані просто захоплюють дух. Хочеться поставити на павзу, зробити скріншот, роздрукувати і повісити на стіну. Погоджуся з попередніми дописувачами, кіно нагадує нарис чи пастельну картину. І це круто, мені такі фільми теж подобаються. Але я впевнений, що таке кіно, зробити якісним набагато тяжче ніж ті самі Сторожова застава, Крути, Жива, Король Данило, Захар Беркут і тд. Там є історичне підгрунття і все значно простіше. А от це кіно - витвір мистецтва.

Vanilinka 
Новенький


З нами з: 18.02.11
Востаннє: 06.03.21
Повідомлень: 23

2020-07-08 22:50  
От чим фільм захопив, так це тим, що його дивитися треба .
Ближнее зарубежье клепає фільми, які дивишся спиною, нарізаючи цибульку, і слізливі діалоги не чіпляють,
а тут якщо відволікся - прокручуєш, щоб побачити вираз обличчя, жест, помилуватися краєвидом, і мало слів але багато емоцій

Форкуш 
VIP


З нами з: 03.02.10
Востаннє: 08.03.21
Повідомлень: 2947

2020-11-01 09:10  

Ваш часовий пояс: GMT + 2 Години

Нова тема   Відповісти