Легенда Г'ю Ґласса / The Revenant (2015) [Open Matte] 1080p H.265 Ukr/Eng | Sub Ukr/Eng

Нові коментарі

Нова тема   Відповісти
Автор Повідомлення
Anonymous 







2019-03-03 19:57  
Легенда Г'ю Ґласса / The Revenant (2015) [Open Matte] 1080p H.265 Ukr/Eng | Sub Ukr/Eng

Легенда Г'ю Ґласса / The Revenant (2015) [Open Matte] 1080p H.265 Ukr/Eng | Sub Ukr/Eng


Жанр: Драма,трилер, пригоди, вестерн
Країна: США, Гонконг, Тайвань
Кінокомпанія: 20th Century Fox, Anonymous Content, Appian Way, Monarchy Enterprises S.a.r.l.
Режисер: Алехандро Ґонсалес Іньярріту
Актори: Леонардо ДіКапріо, Том Гарді, Домнал Ґлісон, Вілл Поултер, Пол Андерсон, Лукас Гаас, Бред Картер, Крістофер Йонер

Сюжет:
Мисливець Г'ю Ґласс серйозно поранений на невідомих просторах американського Дикого Заходу. Товариш Г'ю по загону підкорювачів нових земель Джон Фіцжеральд зрадливо залишає його помирати на самоті. Тепер у Ґласса залишилося тільки одна зброя - його сила волі. Він готовий кинути виклик первісній природі, суворій зимі і ворожим племенам індіанців, тільки щоб вижити і помститися Фіцжеральду.

Тривалість: 02:36:29
Якість:
Відео:
кодек: H.265 (HEVC)
розмір кадру: 1920 x 1080
бітрейт: 6 893 кб/с
бітова глибина: 10 біт
Увага! Перед завантаженням переконайтесь, що ваш пристрій відтворення (та/або ПЗ) підтримує H.265 (HEVC)

Аудіо # 1:
мова: українська
переклад: професійний дубльований
кодек: AC-3 5.1
бітрейт: 448 кб/с

Аудіо # 2:
мова: англійська
переклад: оригінал
кодек: AC-3 5.1
бітрейт: 640 кб/с

Субтитри # 1:
мова: українська (Forced),
тип: програмні (м'які)
формат: *.srt

Субтитри # 2:
мова: українська (Full),
тип: програмні (м'які)
формат: *.srt

Субтитри # 3:
мова: англійська (Full),
тип: програмні (м'які)
формат: *.srt

Субтитри # 4:
мова: англійська (SDH),
тип: програмні (м'які)
формат: *.srt


Info
Код:
General
Unique ID                                : 76234210129295882342971700511659954298 (0x395A2CC02EB731EF630352C42366907A)
Complete name                            : F:\Video\The Revenant (2015) [Open Matte] 1080p [UKR_ENG] [Hurtom].
Format                                   :
Format version                           : Version 4 / Version 2
File size                                : 8.73 GiB
Duration                                 : 2 h 37 min
Overall bit rate                         : 7 957 kb/s
Movie name                               : The Revenant (2015) [Open Matte]
Encoded date                             : UTC 2019-03-03 16:20:19
Writing application                      : v20.0.0 ('I Am The Sun') 64-bit
Writing library                          : libebml v1.3.5 + v1.4.8
Cover                                    : Yes
Attachments                              : Cover.jpg

Video
ID                                       : 1
Format                                   : HEVC
Format/Info                              : High Efficiency Video Coding
Format profile                           : Main [email protected]@High
Codec ID                                 : V_MPEGH/ISO/HEVC
Duration                                 : 2 h 36 min
Bit rate                                 : 6 893 kb/s
Width                                    : 1 920 pixels
Height                                   : 1 080 pixels
Display aspect ratio                     : 16:9
Frame rate mode                          : Constant
Frame rate                               : 23.976 (24000/1001) FPS
Color space                              : YUV
Chroma subsampling                       : 4:2:0
Bit depth                                : 10 bits
Bits/(Pixel*Frame)                       : 0.139
Stream size                              : 7.53 GiB (86%)
Title                                    : The Revenant (2015) [Open Matte]
Writing library                          : x265 2.9+9-f74003e88622:[Windows][GCC 8.2.0][64 bit] 10bit
Encoding settings                        : cpuid=1111039 / frame-threads=5 / numa-pools=4 / wpp / no-pmode / no-pme / no-psnr / no-ssim / log-level=3 / input-csp=1 / input-res=1920x1080 / interlace=0 / total-frames=0 / level-idc=51 / high-tier=1 / uhd-bd=0 / ref=5 / allow-non-conformance / no-repeat-headers / annexb / no-aud / no-hrd / info / hash=0 / no-temporal-layers / open-gop / min-keyint=23 / keyint=250 / gop-lookahead=0 / bframes=8 / b-adapt=2 / b-pyramid / bframe-bias=0 / rc-lookahead=40 / lookahead-slices=6 / scenecut=40 / radl=0 / no-intra-refresh / ctu=64 / min-cu-size=8 / no-rect / no-amp / max-tu-size=32 / tu-inter-depth=1 / tu-intra-depth=1 / limit-tu=0 / rdoq-level=0 / dynamic-rd=0.00 / no-ssim-rd / signhide / no-tskip / nr-intra=0 / nr-inter=0 / no-constrained-intra / no-strong-intra-smoothing / max-merge=2 / limit-refs=3 / no-limit-modes / me=3 / subme=7 / merange=57 / temporal-mvp / weightp / weightb / no-analyze-src-pics / deblock=-2:-2 / no-sao / no-sao-non-deblock / rd=3 / no-early-skip / rskip / no-fast-intra / no-tskip-fast / no-cu-lossless / no-b-intra / no-splitrd-skip / rdpenalty=0 / psy-rd=2.00 / psy-rdoq=0.00 / no-rd-refine / no-lossless / cbqpoffs=0 / crqpoffs=0 / rc=abr / bitrate=7000 / qcomp=0.65 / qpstep=2 / stats-write=0 / stats-read=0 / vbv-maxrate=50000 / vbv-bufsize=50000 / vbv-init=0.9 / ipratio=1.40 / pbratio=1.30 / aq-mode=1 / aq-strength=1.00 / cutree / zone-count=0 / no-strict-cbr / qg-size=32 / no-rc-grain / qpmax=69 / qpmin=0 / no-const-vbv / sar=1 / overscan=0 / videoformat=5 / range=0 / colorprim=1 / transfer=1 / colormatrix=1 / chromaloc=0 / display-window=0 / max-cll=0,0 / min-luma=0 / max-luma=1023 / log2-max-poc-lsb=8 / vui-timing-info / vui-hrd-info / slices=1 / no-opt-qp-pps / no-opt-ref-list-length-pps / no-multi-pass-opt-rps / scenecut-bias=0.05 / no-opt-cu-delta-qp / no-aq-motion / no-hdr / no-hdr-opt / no-dhdr10-opt / no-idr-recovery-sei / analysis-reuse-level=5 / scale-factor=0 / refine-intra=0 / refine-inter=0 / refine-mv=0 / no-limit-sao / ctu-info=0 / no-lowpass-dct / refine-mv-type=0 / copy-pic=1 / max-ausize-factor=1.0 / no-dynamic-refine / no-single-sei
Default                                  : Yes
Forced                                   : No
Color range                              : Limited
Color primaries                          : BT.709
Transfer characteristics                 : BT.709
Matrix coefficients                      : BT.709

Audio #1
ID                                       : 2
Format                                   : AC-3
Format/Info                              : Audio Coding 3
Codec ID                                 : A_AC3
Duration                                 : 2 h 36 min
Bit rate mode                            : Constant
Bit rate                                 : 448 kb/s
Channel(s)                               : 6 channels
Channel positions                        : Front: L C R, Side: L R, LFE
Sampling rate                            : 48.0 kHz
Frame rate                               : 31.250 FPS (1536 SPF)
Bit depth                                : 16 bits
Compression mode                         : Lossy
Stream size                              : 501 MiB (6%)
Title                                    : ПД - Blu-Ray
Language                                 : Ukrainian
Service kind                             : Complete Main
Default                                  : Yes
Forced                                   : Yes

Audio #2
ID                                       : 3
Format                                   : AC-3
Format/Info                              : Audio Coding 3
Codec ID                                 : A_AC3
Duration                                 : 2 h 36 min
Bit rate mode                            : Constant
Bit rate                                 : 640 kb/s
Channel(s)                               : 6 channels
Channel positions                        : Front: L C R, Side: L R, LFE
Sampling rate                            : 48.0 kHz
Frame rate                               : 31.250 FPS (1536 SPF)
Bit depth                                : 16 bits
Compression mode                         : Lossy
Stream size                              : 716 MiB (8%)
Title                                    : Original
Language                                 : English
Service kind                             : Complete Main
Default                                  : No
Forced                                   : No

Text #1
ID                                       : 4
Format                                   : UTF-8
Codec ID                                 : S_TEXT/UTF8
Codec ID/Info                            : UTF-8 Plain Text
Duration                                 : 2 h 35 min
Bit rate                                 : 5 b/s
Count of elements                        : 146
Stream size                              : 5.76 KiB (0%)
Title                                    : Forced
Language                                 : Ukrainian
Default                                  : Yes
Forced                                   : Yes

Text #2
ID                                       : 5
Format                                   : UTF-8
Codec ID                                 : S_TEXT/UTF8
Codec ID/Info                            : UTF-8 Plain Text
Duration                                 : 2 h 35 min
Bit rate                                 : 38 b/s
Count of elements                        : 846
Stream size                              : 44.5 KiB (0%)
Title                                    : Full
Language                                 : Ukrainian
Default                                  : No
Forced                                   : No

Text #3
ID                                       : 6
Format                                   : UTF-8
Codec ID                                 : S_TEXT/UTF8
Codec ID/Info                            : UTF-8 Plain Text
Duration                                 : 2 h 20 min
Bit rate                                 : 25 b/s
Count of elements                        : 936
Stream size                              : 26.5 KiB (0%)
Title                                    : Full
Language                                 : English
Default                                  : No
Forced                                   : No

Text #4
ID                                       : 7
Format                                   : UTF-8
Codec ID                                 : S_TEXT/UTF8
Codec ID/Info                            : UTF-8 Plain Text
Duration                                 : 2 h 25 min
Bit rate                                 : 30 b/s
Count of elements                        : 1231
Stream size                              : 32.4 KiB (0%)
Title                                    : SDH
Language                                 : English
Default                                  : No
Forced                                   : No

Menu
00:00:00.000                             : en:Chapter 1
00:05:11.846                             : en:Chapter 2
00:08:05.311                             : en:Chapter 3
00:13:25.965                             : en:Chapter 4
00:21:17.686                             : en:Chapter 5
00:28:28.658                             : en:Chapter 6
00:37:14.767                             : en:Chapter 7
00:44:07.346                             : en:Chapter 8
00:48:21.975                             : en:Chapter 9
00:51:49.266                             : en:Chapter 10
00:56:58.033                             : en:Chapter 11
00:59:57.754                             : en:Chapter 12
01:03:38.766                             : en:Chapter 13
01:11:59.433                             : en:Chapter 14
01:16:41.133                             : en:Chapter 15
01:21:29.377                             : en:Chapter 16
01:28:38.139                             : en:Chapter 17
01:37:36.969                             : en:Chapter 18
01:48:51.643                             : en:Chapter 19
01:53:15.782                             : en:Chapter 20
01:59:12.930                             : en:Chapter 21
02:09:56.703                             : en:Chapter 22
02:15:52.262                             : en:Chapter 23
02:22:58.021                             : en:Chapter 24
Світлини





Джерело: &
Особиста оцінка: 0 - не дивився


 Трекер:    Зареєстрований   

Завантажити / скачати фільм українською



відео для новачків



 Зареєстрований:   2019-03-03 19:57
 Розмір:   8.73 GB 
 Оцінка фільму:   9.8/10 (Голосів: 9)
   
Інші релізи
Anonymous 







2019-03-13 23:14  
Так дивно, що ніхто не качає Open Matte версію...
famous37 
Відео Гуртом - фільмокрай
Відео Гуртом - фільмокрай


З нами з: 16.11.08
Востаннє: 06.09.19
Повідомлень: 961

2019-03-13 23:23  
-Star-Lord-, забираю. Люблю таку картинку. Дякую.
Anonymous 







2019-03-13 23:38  
famous37
Стою на віддачі

+380954897458 
VIP


З нами з: 02.06.17
Востаннє: 15.09.19
Повідомлень: 412

2019-03-16 10:27  
-Star-Lord-
Open Matte -це чудово, та ще з українськими субтитрами, але мій KMPayer відмовляється номально відтворювати H.265.

famous37 
Відео Гуртом - фільмокрай
Відео Гуртом - фільмокрай


З нами з: 16.11.08
Востаннє: 06.09.19
Повідомлень: 961

2019-03-16 10:53  
+380954897458, mpc black edition
+380954897458 
VIP


З нами з: 02.06.17
Востаннє: 15.09.19
Повідомлень: 412

2019-03-17 18:12  
famous37
Дякую, спробую!

Ваш часовий пояс: GMT + 2 Години

Нова тема   Відповісти