Нація убивць / Assassination Nation (2018) Remux 1080p Ukr/Eng | Sub Eng

Нові коментарі

Нова тема   Відповісти
Автор Повідомлення
staf777 
Відео Гуртом - підтримка та поширення
Відео Гуртом - підтримка та поширення


З нами з: 16.11.16
Востаннє: 24.04.19
Повідомлень: 2284

2019-03-03 19:31  
Нація убивць / Assassination Nation (2018) Remux 1080p Ukr/Eng | Sub Eng


Альтернативний постер



Жанр: драма, комедія, кримінальний, трилер
Країна: США



Кінокомпанія: BRON Studios,Foxtail Entertainment,Phantom Four
Режисер: Сем Левінсон
Актори: Одесса Янґ, С'юкі Вотерхаус, Гарі Неф, Ґабріель Олівія Мірвіль, Белла Торн, Колман Домінго ,Білл Скарсгард ,Джоел МакХейл, Аніка Ноні Роуз, Коді Крістіан та інші

Сюжет:
На що здатні жителі тихого містечка, якщо їх зачепити за живе? Більшість з нас ніколи про це не дізнається, а от жителям Салема випала така нагода. Головні героїні фільму – це чотири шкільні подруги. Вони веселяться на повну, відриваючись на вечірках. Як і більшість одноліток, фотографують усе, що бачать та викладають це у соцмережі. На відміну від старих закомплексованих дядечок та тітоньок, які дуже хвилюються за свою репутацію. Містом почала ширитися інформація: один за одним зламані усі переписки та фото кількох городян. І їм було що приховувати, тож ганьби не уникнути. Так їм і треба – констатували дівчата. Радіти цьому лишилось не довго – у мережу виставлені приватні дані майже на усіх жителів Салема. Місто захлинається від люті та масових вбивств. Більшість постраждалих звинувачує у хакерстві дівчат. Миритися з таким наклепом вони не збираються.


Тривалість: 01:47:59
Якість: Remux 1080p
Відео:
кодек:
розмір кадру: 1920x1080
бітрейт: 29,4 Mб/с

Аудіо # 1:
мова: українська
переклад: професійний дубльований | студія ААА-sound
кодек: 2.0
бітрейт: 192 кб/с
Інформація про дубляж
Перекладач: Віталій Жук
Редактор: Юлія Когут
Режисер дубляжу та звукорежисер перезапису: Олександр Єфімов
Ролі дублювали: Дарина Муращенко, Павло Скороходько, Катерина Буцька, Олександр Солодкий, Ганна Чиж, Михайло Тишин, Олена Узлюк, Дмитро Гаврилов, Іван Розін, Юлія Перенчук, Євген Пашин, Юлія Шаповал, Михайло Кришталь, Арсен Шавлюк, Ярослав Чорненький та інші.

Фільм дубльовано студією ААА-sound у 2018 році на замовлення компанії UFD.
Аудіо # 2:
мова: англійська
переклад: оригінал
кодек: -HD MA 5.1
бітрейт: 3939 кб/с

Субтитри:
мова: англійська
тип: програмні (м'які)
формат: *.srt
Info
General
Unique ID : 143119550006040667322848971092504076536 (0x6BABD29C5C866515A46F0EA397EFE0F8)
Complete name : S:\» HD українською » Фільми в HD\Трилер\Assassination Nation (2018) Remux 1080p [UKR_ENG] [Hurtom].
Format :
Format version : Version 4
File size : 25.3 GiB
Duration : 1 h 47 min
Overall bit rate mode : Variable
Overall bit rate : 33.6 Mb/s
Movie name : Assassination Nation (2018) Remux 1080p [UKR_ENG] [Hurtom]
Encoded date : UTC 2019-03-03 18:32:29
Writing application : v30.1.0 ('Forever And More') 64-bit
Writing library : libebml v1.3.6 + v1.4.9
Cover : Yes
Attachments : cover

Video
ID : 1
Format : AVC
Format/Info : Advanced Video Codec
Format profile : [email protected]
Format settings : CABAC / 4 Ref Frames
Format settings, CABAC : Yes
Format settings, ReFrames : 4 frames
Codec ID : V_MPEG4/ISO/AVC
Duration : 1 h 47 min
Bit rate mode : Variable
Bit rate : 29.4 Mb/s
Maximum bit rate : 36.0 Mb/s
Width : 1 920 pixels
Height : 1 080 pixels
Display aspect ratio : 16:9
Frame rate mode : Constant
Frame rate : 23.976 (24000/1001) FPS
Color space : YUV
Chroma subsampling : 4:2:0
Bit depth : 8 bits
Scan type : Progressive
Bits/(Pixel*Frame) : 0.592
Stream size : 22.2 GiB (88%)
Language : English
Default : Yes
Forced : No

Audio #1
ID : 2
Format : AC-3
Format/Info : Audio Coding 3
Commercial name : Dolby Digital
Codec ID : A_AC3
Duration : 1 h 47 min
Bit rate mode : Constant
Bit rate : 192 kb/s
Channel(s) : 2 channels
Channel layout : L R
Sampling rate : 48.0 kHz
Frame rate : 31.250 FPS (1536 SPF)
Bit depth : 16 bits
Compression mode : Lossy
Stream size : 148 MiB (1%)
Title : 2.0 @ 192 kbps
Language : Ukrainian
Service kind : Complete Main
Default : Yes
Forced : Yes

Audio #2
ID : 3
Format : XLL
Format/Info : Digital Theater Systems
Commercial name : -HD Master Audio
Codec ID : A_DTS
Duration : 1 h 47 min
Bit rate mode : Variable
Bit rate : 3 939 kb/s
Channel(s) : 6 channels
Channel layout : C L R Ls Rs LFE
Sampling rate : 48.0 kHz
Frame rate : 93.750 FPS (512 SPF)
Bit depth : 24 bits
Compression mode : Lossless
Stream size : 2.97 GiB (12%)
Title : Original
Language : English
Default : No
Forced : No

Text #1
ID : 4
Format : UTF-8
Codec ID : S_TEXT/UTF8
Codec ID/Info : UTF-8 Plain Text
Duration : 1 h 38 min
Bit rate : 57 b/s
Count of elements : 1283
Stream size : 41.5 KiB (0%)
Title : Full
Language : English
Default : No
Forced : No

Text #2
ID : 5
Format : UTF-8
Codec ID : S_TEXT/UTF8
Codec ID/Info : UTF-8 Plain Text
Duration : 1 h 46 min
Bit rate : 66 b/s
Count of elements : 1583
Stream size : 51.6 KiB (0%)
Title : SDH
Language : English
Default : No
Forced : No

Menu
00:00:00.000 : :Chapter 01
00:22:06.366 : :Chapter 02
00:43:51.712 : :Chapter 03
01:01:11.334 : :Chapter 04
01:16:31.169 : :Chapter 05
01:21:47.694 : :Chapter 06
01:28:27.135 : :Chapter 07
01:39:32.883 : :Chapter 08
01:47:58.513 : :Chapter 09



Джерело: &
Особиста оцінка: 8 - мені сподобалося
Нація убивць / Assassination Nation (2018) Remux 1080p Ukr/Eng | Sub Eng Нація убивць / Assassination Nation (2018) Remux 1080p Ukr/Eng | Sub Eng


Золотий реліз (завантажене не впливає на рейтинг)
 Трекер:    Зареєстрований   

Завантажити / скачати фільм українською



відео для новачків



 Зареєстрований:   2019-03-03 22:51
 Розмір:   25.31 GB 
 Оцінка фільму:   6.7/10 (Голосів: 9)
   
Інші релізи
bot 
робот


З нами з: 30.09.07
Востаннє: 26.05.05
Повідомлень: 21239

2019-03-03 22:50  
Тему перенесено з Анонси релізів до форуму Фільми в HD


staf777

Ваш часовий пояс: GMT + 2 Години

Нова тема   Відповісти