Кільцеві перегони / The Circuit (2008) 1080p 2xUkr/Eng | Sub Eng

Нові коментарі

Нова тема   Відповісти
Автор Повідомлення
urij546724 
Відео Гуртом - фільмокрай
Відео Гуртом - фільмокрай


З нами з: 16.03.10
Востаннє: 18.04.19
Повідомлень: 5514

2019-03-03 18:07  
Кільцеві перегони / The Circuit (2008) 1080p 2xUkr/Eng | Sub Eng

Кільцеві перегони / The Circuit (2008) 1080p 2xUkr/Eng | Sub Eng


Жанр: комедія, драма, спорт, екшн
Країна: Канада, США



Кіностудія / кінокомпанія: Von Zerneck Sertner Films
Режисер: Пітер Вернер / Peter Werner
Актори: Мішель Трахтенберг (Michelle Trachtenberg), Дрю Фуллер (Drew Fuller), Пол Рей (Paul Rae), Білл Кемпбелл (Billy Campbell), Томмі Лютас (Tommy Lioutas)...

Сюжет:
Кайлі - суперечлива за складом характеру дівчина, бо живе у двох світах одночасно: в одному світі вона вчителька у початковій школі, в іншому – вона майже одержима пристрастю до автогонок на треку до такої міри, що завойовує призові місця на різних змаганнях.


Тривалість: 01:29:08
Якість: 1080p

Відео:
кодек:
розмір кадру: 1920 х 1080
бітрейт: 12,5 Мб/с

Аудіо #1:
мова: українська
переклад: двоголосий закадровий
кодек: 2.0
бітрейт: 192 кб/с
запис звуку з каналу: ТВ4
озвучено: студією КІТ

Аудіо #2:
мова: українська
переклад: багатоголосий закадровий
кодек: 2.0
бітрейт: 192 кб/с
запис звуку з каналу: NLO TV

Аудіо #3:
мова: англійська
переклад: оригінал
кодек: E- 2.0
бітрейт: 224 кб/с

Субтитри #1:
мова: англійська
тип: програмні (м'які)
формат: *.srt
Media info:
General
Unique ID : 224748344617980523217674628987081157994 (0xA914F4E950F41700B54C17797ACB6D6A)
Format :
Format version : Version 2
File size : 8.32 GiB
Duration : 1 h 29 min
Overall bit rate mode : Variable
Overall bit rate : 13.4 Mb/s
Movie name : The Circuit (2008) [2xukr_eng_AC3] 1080p [Hurtom] by urij546724
Encoded date : UTC 2019-03-03 14:14:47
Writing application : v2.9.7 ('Tenderness') built on Jul 1 2009 18:43:35
Writing library : libebml v0.7.7 + v0.8.1
Attachments : The Circuit (2008) [2xukr_eng_AC3] 1080p [Hurtom] by urij546724.jpg

Video
ID : 1
Format : AVC
Format/Info : Advanced Video Codec
Format profile : [email protected]
Format settings : CABAC / 4 Ref Frames
Format settings, CABAC : Yes
Format settings, ReFrames : 4 frames
Codec ID : V_MPEG4/ISO/AVC
Duration : 1 h 29 min
Bit rate mode : Variable
Bit rate : 12.5 Mb/s
Maximum bit rate : 15.0 Mb/s
Width : 1 920 pixels
Height : 1 080 pixels
Display aspect ratio : 16:9
Frame rate mode : Constant
Frame rate : 23.976 (24000/1001) FPS
Color space : YUV
Chroma subsampling : 4:2:0
Bit depth : 8 bits
Scan type : Progressive
Bits/(Pixel*Frame) : 0.251
Stream size : 7.78 GiB (93%)
Title : The Circuit (2008) 1080p [Hurtom] by urij546724
Language : English
Default : Yes
Forced : No
Color range : Limited
Color primaries : BT.709
Transfer characteristics : BT.709
Matrix coefficients : BT.709

Audio #1
ID : 2
Format : AC-3
Format/Info : Audio Coding 3
Codec ID : A_AC3
Duration : 1 h 29 min
Bit rate mode : Constant
Bit rate : 192 kb/s
Channel(s) : 2 channels
Channel positions : Front: L R
Sampling rate : 48.0 kHz
Frame rate : 31.250 FPS (1536 SPF)
Bit depth : 16 bits
Compression mode : Lossy
Stream size : 122 MiB (1%)
Title : Українська доріжка (студія КІТ)
Language : Ukrainian
Service kind : Complete Main
Default : Yes
Forced : Yes

Audio #2
ID : 3
Format : AC-3
Format/Info : Audio Coding 3
Codec ID : A_AC3
Duration : 1 h 29 min
Bit rate mode : Constant
Bit rate : 192 kb/s
Channel(s) : 2 channels
Channel positions : Front: L R
Sampling rate : 48.0 kHz
Frame rate : 31.250 FPS (1536 SPF)
Bit depth : 16 bits
Compression mode : Lossy
Stream size : 122 MiB (1%)
Title : Українська доріжка (NLOTV)
Language : Ukrainian
Service kind : Complete Main
Default : No
Forced : No

Audio #3
ID : 4
Format : E-AC-3
Format/Info : Enhanced Audio Coding 3
Codec ID : A_EAC3
Duration : 1 h 29 min
Bit rate mode : Constant
Bit rate : 224 kb/s
Channel(s) : 2 channels
Channel positions : Front: L R
Sampling rate : 48.0 kHz
Frame rate : 187.500 FPS (256 SPF)
Compression mode : Lossy
Delay relative to video : 32 ms
Stream size : 143 MiB (2%)
Title : Оригінальна доріжка
Language : English
Service kind : Complete Main
Default : No
Forced : No

Text
ID : 5
Format : UTF-8
Codec ID : S_TEXT/UTF8
Codec ID/Info : UTF-8 Plain Text
Title : Оригінальні субтитри
Language : English
Default : No
Forced : No
Скріншоти:





Трейлери:

Семпл
Джерело 1_________Джерело 2_________Джерело 3_________Джерело 4_________Джерело 5
У випадку, якщо з усіх джерел семпл видалять, прохання повідомити мені у ПРИВАТ


Подяка:

1. Пану urij546724 і Пану НТН за запис з ТБ.


Джерело:


 Трекер:    Зареєстрований   

Завантажити / скачати фільм українською



відео для новачків



 Зареєстрований:   2019-03-03 18:07
 Розмір:   8.32 GB 
 Оцінка фільму:   10/10 (Голосів: 3)
 Прохання залишати коментарі і не тікати з роздачі.
   
Інші релізи
   Кільцеві перегони / The Circuit (2008) НТН  1 / 0   1.36 GB   2015-09-13 17:44 
Ваш часовий пояс: GMT + 2 Години

Нова тема   Відповісти