Кровний батько / Blood Father (2016) 1080p Ukr/Eng | Sub Eng

Нові коментарі

Нова тема   Відповісти
Останній раз роздавалося staf777 (2019-04-20)
Автор Повідомлення
staf777 
Відео Гуртом - підтримка та поширення
Відео Гуртом - підтримка та поширення


З нами з: 16.11.16
Востаннє: 20.04.19
Повідомлень: 2267

2019-03-03 15:01  
Кровний батько / Blood Father (2016) 1080p Ukr/Eng | Sub Eng



Жанр: екшн, кримінальний, драма, трилер
Країна: Франція



Кінокомпанія: Why Not Productions, Wild Bunch
Режисер: Жан-Франсуа Ріше / Jean-François Richet
Актори: Мел Ґібсон / Mel Gibson, Ерін Моріарті / Erin Moriarty, Дієґо Луна / Diego Luna, Майкл Паркс / Michael Parks, Вільям Мейсі / William H. Macy, Міґель Сандовал / Miguel Sandoval, Дейл Діккі / Dale Dickey, Річард Кабрал / Richard Cabral, Деніель Монкада / Daniel Moncada, Раян Дорсі / Ryan Dorsey та інші.

Сюжет:
Колишній в'язень, який раніше не брав участь у вихованні дочки, дізнавшись про те, що його дочку переслідують наркоторговці і жадають її смерті, вирішив допомогти їй з проблемами...


Тривалість: 01:28:12
Якість: 1080p
Відео:
кодек:
розмір кадру: 1920x800
бітрейт: 13.5 Mб/с

Аудіо # 1:
мова: українська
переклад: багатоголосий закадровий
кодек: 2.0 (стерео)
бітрейт: 192 кб/с

Аудіо # 2:
мова: англійська
переклад: оригінал
кодек: 5.1
бітрейт: 640 кб/с

Джерело озвучення:


Субтитри:
мова: англійська
тип: програмні (м'які)
формат: *.srt
Info
General
Unique ID : 94951257672530195830563661920533289646 (0x476EF2714553E56F7BE795C19EE51AAE)
Complete name : S:\» HD українською » Фільми в HD\Бойовик\Blood Father (2016) 1080p [UKR_ENG] [Hurtom].
Format :
Format version : Version 4
File size : 8.82 GiB
Duration : 1 h 28 min
Overall bit rate : 14.3 Mb/s
Movie name : Blood Father (2016) 1080p [UKR_ENG] [Hurtom]
Encoded date : UTC 2019-03-03 12:48:21
Writing application : v30.1.0 ('Forever And More') 64-bit
Writing library : libebml v1.3.6 + v1.4.9
Cover : Yes
Attachments : cover.jpg

Video
ID : 1
Format : AVC
Format/Info : Advanced Video Codec
Format profile : [email protected]
Format settings : CABAC / 5 Ref Frames
Format settings, CABAC : Yes
Format settings, ReFrames : 5 frames
Codec ID : V_MPEG4/ISO/AVC
Duration : 1 h 28 min
Bit rate : 13.5 Mb/s
Width : 1 920 pixels
Height : 800 pixels
Display aspect ratio : 2.40:1
Frame rate mode : Constant
Frame rate : 23.976 (24000/1001) FPS
Color space : YUV
Chroma subsampling : 4:2:0
Bit depth : 8 bits
Scan type : Progressive
Bits/(Pixel*Frame) : 0.367
Stream size : 8.31 GiB (94%)
Title : ***селезень***
Writing library : core 142 r2431+42 c69a006 tMod [[email protected] X86_64]
Encoding settings : cabac=1 / ref=5 / deblock=1:-3:-3 / analyse=0x3:0x113 / me=umh / subme=11 / psy=1 / fade_compensate=0.00 / psy_rd=1.05:1.05 / mixed_ref=1 / me_range=48 / chroma_me=1 / trellis=2 / 8x8dct=1 / cqm=0 / deadzone=21,11 / fast_pskip=0 / chroma_qp_offset=-4 / threads=16 / lookahead_threads=4 / sliced_threads=0 / nr=0 / decimate=0 / interlaced=0 / bluray_compat=0 / constrained_intra=0 / fgo=0 / bframes=10 / b_pyramid=2 / b_adapt=2 / b_bias=0 / direct=3 / weightb=1 / open_gop=0 / weightp=2 / keyint=240 / keyint_min=23 / scenecut=40 / intra_refresh=0 / rc_lookahead=150 / rc=2pass / mbtree=0 / bitrate=13500 / ratetol=1.0 / qcomp=0.90 / qpmin=0:0:0 / qpmax=69:69:69 / qpstep=4 / cplxblur=20.0 / qblur=0.5 / vbv_maxrate=62500 / vbv_bufsize=78125 / nal_hrd=none / filler=0 / ip_ratio=1.30 / pb_ratio=1.40 / aq=2:0.80 / aq-sensitivity=10.00 / aq-factor=1.00:1.00:1.00 / aq2=0 / aq3=0
Language : English
Default : Yes
Forced : No
Color range : Limited
Color primaries : BT.709
Transfer characteristics : BT.709
Matrix coefficients : BT.709

Audio #1
ID : 2
Format : AC-3
Format/Info : Audio Coding 3
Commercial name : Dolby Digital
Codec ID : A_AC3
Duration : 1 h 28 min
Bit rate mode : Constant
Bit rate : 192 kb/s
Channel(s) : 2 channels
Channel layout : L R
Sampling rate : 48.0 kHz
Frame rate : 31.250 FPS (1536 SPF)
Bit depth : 16 bits
Compression mode : Lossy
Stream size : 121 MiB (1%)
Language : Ukrainian
Service kind : Complete Main
Default : Yes
Forced : Yes

Audio #2
ID : 3
Format : AC-3
Format/Info : Audio Coding 3
Commercial name : Dolby Digital
Codec ID : A_AC3
Duration : 1 h 28 min
Bit rate mode : Constant
Bit rate : 640 kb/s
Channel(s) : 6 channels
Channel layout : L R C LFE Ls Rs
Sampling rate : 48.0 kHz
Frame rate : 31.250 FPS (1536 SPF)
Bit depth : 16 bits
Compression mode : Lossy
Stream size : 404 MiB (4%)
Title : Original
Language : English
Service kind : Complete Main
Default : No
Forced : No

Text
ID : 4
Format : UTF-8
Codec ID : S_TEXT/UTF8
Codec ID/Info : UTF-8 Plain Text
Duration : 1 h 20 min
Bit rate : 67 b/s
Count of elements : 1179
Stream size : 40.1 KiB (0%)
Title : Full
Language : English
Default : No
Forced : No

Menu
00:00:00.000 : en:00:00:00.000
00:11:45.371 : en:00:11:45.371
00:18:07.753 : en:00:18:07.753
00:26:34.635 : en:00:26:34.635
00:38:04.991 : en:00:38:04.991
00:51:10.985 : en:00:51:10.985
00:59:56.968 : en:00:59:56.968
01:09:05.725 : en:01:09:05.725
01:18:46.096 : en:01:18:46.096
01:28:10.494 : en:01:28:10.494
01:35:03.197 : en:01:35:03.197
Скріншоти





Над доріжкою працювали: Bohdan237, Sando7

Джерело: &
Кровний батько / Blood Father (2016) 1080p Ukr/Eng | Sub Eng Кровний батько / Blood Father (2016) 1080p Ukr/Eng | Sub Eng


 Трекер:    Зареєстрований   

Завантажити / скачати фільм українською



відео для новачків



 Зареєстрований:   2019-03-03 16:35
 Розмір:   8.82 GB 
 Оцінка фільму:   7.6/10 (Голосів: 9)
   
Інші релізи
bot 
робот


З нами з: 30.09.07
Востаннє: 26.05.05
Повідомлень: 21217

2019-03-03 16:32  
Тему перенесено з Анонси релізів до форуму Фільми в HD


staf777

Ваш часовий пояс: GMT + 2 Години

Нова тема   Відповісти