Кровний батько / Blood Father (2016) Remux 1080p Ukr/Eng | Sub Eng

Нові коментарі

Нова тема   Відповісти
Автор Повідомлення
staf777 
Відео Гуртом - підтримка та поширення
Відео Гуртом - підтримка та поширення


З нами з: 16.11.16
Востаннє: 06.12.19
Повідомлень: 3038

2019-03-03 13:58  
Кровний батько / Blood Father (2016) Remux 1080p Ukr/Eng | Sub Eng




Жанр: екшн, кримінальний, драма, трилер
Країна: Франція



Кінокомпанія: Why Not Productions, Wild Bunch
Режисер: Жан-Франсуа Ріше / Jean-François Richet
Актори: Мел Ґібсон / Mel Gibson, Ерін Моріарті / Erin Moriarty, Дієґо Луна / Diego Luna, Майкл Паркс / Michael Parks, Вільям Мейсі / William H. Macy, Міґель Сандовал / Miguel Sandoval, Дейл Діккі / Dale Dickey, Річард Кабрал / Richard Cabral, Деніель Монкада / Daniel Moncada, Раян Дорсі / Ryan Dorsey та інші.

Сюжет:
Колишній в'язень, який раніше не брав участь у вихованні дочки, дізнавшись про те, що його дочку переслідують наркоторговці і жадають її смерті, вирішив допомогти їй з проблемами...


Тривалість: 01:28:12
Якість: Remux 1080p
Відео:
кодек:
розмір кадру: 1920x1080
бітрейт: 20,4 Mб/с

Аудіо # 1:
мова: українська
переклад: багатоголосий закадровий
кодек: 2.0
бітрейт: 192 кб/с

Аудіо # 2:
мова: англійська
переклад: оригінал
кодек: -HD MA 5.1
бітрейт: 3450 кб/с

Джерело озвучення:


Субтитри #1-2:
мова: англійська
тип: пререндерні
формат: *.pgs
Info
General
Unique ID : 322885528732002359624876147707415813117 (0xF2E97DA7A715EDD4883D80EE7F6ADBFD)
Complete name : S:\» HD українською » Фільми в HD\Бойовик\Blood Father (2016) Remux 1080p [UKR_ENG] [Hurtom].
Format :
Format version : Version 4
File size : 14.9 GiB
Duration : 1 h 28 min
Overall bit rate mode : Variable
Overall bit rate : 24.1 Mb/s
Movie name : Blood Father (2016) Remux 1080p [UKR_ENG] [Hurtom]
Encoded date : UTC 2019-03-03 14:46:38
Writing application : v30.1.0 ('Forever And More') 64-bit
Writing library : libebml v1.3.6 + v1.4.9
Cover : Yes
Attachments : cover.jpg

Video
ID : 1
Format : AVC
Format/Info : Advanced Video Codec
Format profile : [email protected]
Format settings : CABAC / 4 Ref Frames
Format settings, CABAC : Yes
Format settings, ReFrames : 4 frames
Codec ID : V_MPEG4/ISO/AVC
Duration : 1 h 28 min
Bit rate mode : Variable
Bit rate : 20.4 Mb/s
Maximum bit rate : 37.0 Mb/s
Width : 1 920 pixels
Height : 1 080 pixels
Display aspect ratio : 16:9
Frame rate mode : Constant
Frame rate : 23.976 (24000/1001) FPS
Color space : YUV
Chroma subsampling : 4:2:0
Bit depth : 8 bits
Scan type : Progressive
Bits/(Pixel*Frame) : 0.411
Stream size : 12.6 GiB (85%)
Title : Blood Father.2016.Remux.1080p.[denis100].NNNB
Language : English
Default : Yes
Forced : No

Audio #1
ID : 2
Format : AC-3
Format/Info : Audio Coding 3
Commercial name : Dolby Digital
Codec ID : A_AC3
Duration : 1 h 28 min
Bit rate mode : Constant
Bit rate : 192 kb/s
Channel(s) : 2 channels
Channel layout : L R
Sampling rate : 48.0 kHz
Frame rate : 31.250 FPS (1536 SPF)
Bit depth : 16 bits
Compression mode : Lossy
Stream size : 121 MiB (1%)
Language : Ukrainian
Service kind : Complete Main
Default : Yes
Forced : Yes

Audio #2
ID : 3
Format : XLL
Format/Info : Digital Theater Systems
Commercial name : -HD Master Audio
Codec ID : A_DTS
Duration : 1 h 28 min
Bit rate mode : Variable
Bit rate : 3 450 kb/s
Channel(s) : 6 channels
Channel layout : C L R Ls Rs LFE
Sampling rate : 48.0 kHz
Frame rate : 93.750 FPS (512 SPF)
Bit depth : 24 bits
Compression mode : Lossless
Stream size : 2.13 GiB (14%)
Language : English
Default : No
Forced : No

Text #1
ID : 4
Format : PGS
Muxing mode : zlib
Codec ID : S_HDMV/PGS
Codec ID/Info : Picture based subtitle format used on BDs/HD-DVDs
Duration : 1 h 20 min
Bit rate : 42.1 kb/s
Count of elements : 2216
Stream size : 24.3 MiB (0%)
Language : English
Default : No
Forced : No

Text #2
ID : 5
Format : PGS
Muxing mode : zlib
Codec ID : S_HDMV/PGS
Codec ID/Info : Picture based subtitle format used on BDs/HD-DVDs
Duration : 1 h 21 min
Bit rate : 45.8 kb/s
Count of elements : 2690
Stream size : 26.6 MiB (0%)
Language : English
Default : No
Forced : No

Menu
00:00:00.000 : en:(01)00:00:00:000
00:07:02.797 : en:(02)00:07:02:797
00:10:16.740 : en:(03)00:10:16:740
00:15:59.583 : en:(04)00:15:59:583
00:22:02.195 : en:(05)00:22:02:195
00:28:58.694 : en:(06)00:28:58:694
00:32:28.946 : en:(07)00:32:28:946
00:38:43.112 : en:(08)00:38:43:112
00:45:11.583 : en:(09)00:45:11:583
00:48:45.838 : en:(10)00:48:45:838
00:52:44.369 : en:(11)00:52:44:369
00:57:36.327 : en:(12)00:57:36:327
01:02:32.706 : en:(13)01:02:32:706
01:07:51.733 : en:(14)01:07:51:733
01:12:41.606 : en:(15)01:12:41:606
01:20:57.560 : en:(16)01:20:57:560
Скріншоти





Над доріжкою працювали: Bohdan237, Sando7
Джерело: & &
Особиста оцінка: 0 - не дивився


Золотий реліз (завантажене не впливає на рейтинг)
 Трекер:    Зареєстрований   

Завантажити / скачати фільм українською



відео для новачків



 Зареєстрований:   2019-03-03 17:57
 Розмір:   14.86 GB 
 Оцінка фільму:   8.4/10 (Голосів: 15)
   
Інші релізи
bot 
робот


З нами з: 30.09.07
Востаннє: 26.05.05
Повідомлень: 22591

2019-03-03 17:57  
Тему перенесено з Анонси релізів до форуму Фільми в HD


staf777

whitelaw 
Свій


З нами з: 20.05.15
Востаннє: 05.12.19
Повідомлень: 59

2019-04-30 17:35  
Середнячок, на середині фільму вже хочеться спати.
+380954897458 
VIP


З нами з: 02.06.17
Востаннє: 06.12.19
Повідомлень: 524

2019-05-01 20:57  
whitelaw
Присутність Гібсона робить фільм значно вищим за середнячок. Заради нього одного фільм може захочеться передивитися колись. Взагалі-то, окрім Гібсона там ще чимало цікавих людей, зокрема Майкл Паркс, який тут зіграв одну з останніх ролей, а ще Рауль Трухільйо, якого Мел знімав у своєму "Апокаліпто".

Ваш часовий пояс: GMT + 2 Години

Нова тема   Відповісти