Крим. Вкрадений півострів (2019) 720p

Нові коментарі

Нова тема   Відповісти
Автор Повідомлення
sergiyko.5 
Забанено
Забанено


З нами з: 25.02.16
Востаннє: 29.10.20
Повідомлень: 3651

2019-03-03 13:24  
Крим. Вкрадений півострів (2019) 720p

Крим. Вкрадений півострів (2019) 720p

Жанр: документальний
Країна: Україна
Телеканал / кіностудія: Fresh Production
Продюсер: Олег Щербина та Юлія Чернявська

Сюжет:
Стрічка виробництва компанії Fresh Production буде показана 5 березня в Брюсселі, у Європарламенті, під час конференції "Ситуація в окупованому Криму".

У зйомках стрічки взяли участь Президент України Петро Порошенко, секретар РНБО України Олександр Турчинов, міністр внутрішніх справ України Арсен Аваков, голова Меджлісу кримськотатарського народу Рефат Чубаров та заступник голови Меджлісу Ахтем Чийгоз, перший заступник міністра інформаційної політики України Еміне Джапарова, литовський дипломат Пятрас Вайтєкунас та інші.

"Фільм у хронологічному порядку охоплює період з початку масових розстрілів на Майдані Незалежності до офіційної анексії Криму", - пояснює прес-реліз.


Тривалість: 01:00:21
Якість:

Відео: кодек: розмір кадру: 1280 х 720 бітрейт: 4000 кб/с
Аудіо: мова: українська переклад: оригінал кодек: 2.0 бітрейт: 128 кб/с
Субтитри: мова: українська тип: вбудовані (жорсткі) формат: *.srt (на озвучку іншими мовами)
Про файл:
General
Unique ID : 100201269367631904419733391404179699944 (0x4B621000EC1CAFCBFA01C3A57C20B8E8)
Complete name : D:\Torrents\FILMS\Крим. Вкрадений півострів.2019..720p.
Format :
Format version : Version 4
File size : 1.74 GiB
Duration : 1 h 0 min
Overall bit rate : 4 122 kb/s
Movie name : Крим. Вкрадений півострів 2019 720p by sergiyko
Encoded date : UTC 2019-03-03 11:31:10
Writing application : v30.0.0 ('Interstellar') 64-bit
Writing library : libebml v1.3.6 + v1.4.9
Cover : Yes
Attachments : cover.jpeg

Video
ID : 1
Format : AVC
Format/Info : Advanced Video Codec
Format profile : [email protected]
Format settings : CABAC / 2 Ref Frames
Format settings, CABAC : Yes
Format settings, ReFrames : 2 frames
Codec ID : V_MPEG4/ISO/AVC
Duration : 1 h 0 min
Bit rate mode : Constant
Bit rate : 4 000 kb/s
Width : 1 280 pixels
Height : 720 pixels
Display aspect ratio : 16:9
Frame rate mode : Constant
Frame rate : 25.000 FPS
Color space : YUV
Chroma subsampling : 4:2:0
Bit depth : 8 bits
Scan type : Progressive
Bits/(Pixel*Frame) : 0.174
Stream size : 1.68 GiB (97%)
Language : Ukrainian
Default : Yes
Forced : No

Audio
ID : 2
Format : LC
Format/Info : Advanced Audio Codec Low Complexity
Codec ID : A_AAC-2
Duration : 1 h 0 min
Bit rate : 125 kb/s
Channel(s) : 2 channels
Channel layout : L R
Sampling rate : 48.0 kHz
Frame rate : 46.875 FPS (1024 SPF)
Compression mode : Lossy
Stream size : 54.1 MiB (3%)
Language : Ukrainian
Default : Yes
Forced : No
Скріншоти:



Золотий реліз (завантажене не впливає на рейтинг)
 Трекер:    Зареєстрований   

Завантажити / скачати фільм українською



відео для новачків



 Зареєстрований:   2019-03-03 13:37
 Розмір:   1.74 GB 
 Оцінка фільму:   9.7/10 (Голосів: 39)
   
ssTAss 
Модератор музики


З нами з: 05.07.08
Востаннє: 30.10.20
Повідомлень: 16928

2019-03-03 16:18  
sergiyko.5 написано:
Жанр: доукментальний

документальний
sergiyko.5 написано:
Аудіо: мова: українська

sergiyko.5 написано:
.srt (на озвучку іншими мовами)

якщо є саби на інші мови, значить і в аудіо це треба сказати, тобто, перерахувати які мови звучать
чи ні?
На каналі Україна показували без рухомого рядка знизу (який дуже заважає перегляду і перекриває субтитри)
Може вартує і звідти викласти?

Форкуш 
VIP


З нами з: 03.02.10
Востаннє: 30.10.20
Повідомлень: 2865

2019-03-03 20:20  
ssTAss написано:

На каналі Україна показували без рухомого рядка знизу (який дуже заважає перегляду і перекриває субтитри)
Може вартує і звідти викласти?


То як, буде відео без доріжки?

ssTAss 
Модератор музики


З нами з: 05.07.08
Востаннє: 30.10.20
Повідомлень: 16928

2019-03-04 01:24  
Ваш часовий пояс: GMT + 2 Години

Нова тема   Відповісти