На межі світів (Border) / Gräns (2018) Remux 1080i Ukr/Swe | Sub Eng

Нові коментарі

Нова тема   Відповісти
Автор Повідомлення
staf777 
Відео Гуртом - підтримка та поширення
Відео Гуртом - підтримка та поширення


З нами з: 16.11.16
Востаннє: 28.09.20
Повідомлень: 4062

2019-03-03 13:11  
На межі світів / Gräns (2018) Remux 1080i Ukr/Swe | Sub Eng

На межі світів (Border) / Gräns (2018) Remux 1080i Ukr/Swe | Sub Eng


Жанр: мелодрама, трилер, фентезі
Країна: Швеція, Данія



Кінокомпанія: Meta Film Stockholm, Spark Film & TV, Kärnfilm
Режисер: Алі Аббасі
Актори: Єва Меландер, Ееро Мілонофф, Йорґен Торссон, Анн Петрен, Стен Льюнггрен, К'єлль Вільхельмсен, Ракель Вармландер, Андреас Кундлер, Матті Боустед

Сюжет:
Молода жінка володіє дивовижним даром визначати людей, які щось приховують. Несподівано вона зустрічає незнайомця, чиї розум і почуття для неї закриті. Але саме йому судилося змінити її долю назавжди, і змусити зрозуміти, що вона знаходиться на межі світів...


Тривалість: 01:45:25
Якість: Remux 1080i [NOR Blu-ray]
Відео:
кодек:
розмір кадру: 1920x1080
бітрейт: 20,3 Mб/с

Аудіо :
мова: українська
переклад: багатоголосий закадровий | студія ААА-sound
кодек: 5.1
бітрейт: 384 кб/с

Аудіо # 2:
мова: шведська
переклад: оригінал
кодек: 5.1
бітрейт: 448 кб/с

Субтитри:
мова: англійська
тип: програмні (м'які)
формат: *.srt
Info
General
Unique ID : 151955702220117148961491258331231148716 (0x72519A8CE8E1F87DF43751B0FDDFDAAC)
Complete name : S:\» HD українською » Фільми в HD\Фентезі\Gräns (2018) Remux 1080i [UKR_SWE] [Hurtom].
Format :
Format version : Version 4
File size : 15.5 GiB
Duration : 1 h 45 min
Overall bit rate mode : Variable
Overall bit rate : 21.1 Mb/s
Movie name : Gräns (2018) Remux 1080i [UKR_SWE] [Hurtom]
Encoded date : UTC 2019-03-03 11:15:14
Writing application : v30.1.0 ('Forever And More') 64-bit
Writing library : libebml v1.3.6 + v1.4.9
Cover : Yes
Attachments : cover.jpg

Video
ID : 1
Format : AVC
Format/Info : Advanced Video Codec
Format profile : [email protected]
Format settings : CABAC / 3 Ref Frames
Format settings, CABAC : Yes
Format settings, ReFrames : 3 frames
Format settings, GOP : M=3, N=12
Codec ID : V_MPEG4/ISO/AVC
Duration : 1 h 45 min
Bit rate mode : Variable
Bit rate : 20.3 Mb/s
Maximum bit rate : 28.0 Mb/s
Width : 1 920 pixels
Height : 1 080 pixels
Display aspect ratio : 16:9
Frame rate mode : Constant
Frame rate : 25.000 FPS
Standard : NTSC
Color space : YUV
Chroma subsampling : 4:2:0
Bit depth : 8 bits
Scan type : MBAFF
Bits/(Pixel*Frame) : 0.391
Stream size : 14.9 GiB (96%)
Language : Swedish
Default : Yes
Forced : No
Color range : Limited
Color primaries : BT.709
Transfer characteristics : BT.709
Matrix coefficients : BT.709

Audio #1
ID : 2
Format : AC-3
Format/Info : Audio Coding 3
Commercial name : Dolby Digital
Codec ID : A_AC3
Duration : 1 h 45 min
Bit rate mode : Constant
Bit rate : 384 kb/s
Channel(s) : 6 channels
Channel layout : L R C LFE Ls Rs
Sampling rate : 48.0 kHz
Frame rate : 31.250 FPS (1536 SPF)
Bit depth : 16 bits
Compression mode : Lossy
Stream size : 290 MiB (2%)
Language : Ukrainian
Service kind : Complete Main
Default : Yes
Forced : Yes

Audio #2
ID : 3
Format : AC-3
Format/Info : Audio Coding 3
Commercial name : Dolby Digital
Codec ID : A_AC3
Duration : 1 h 45 min
Bit rate mode : Constant
Bit rate : 448 kb/s
Channel(s) : 6 channels
Channel layout : L R C LFE Ls Rs
Sampling rate : 48.0 kHz
Frame rate : 31.250 FPS (1536 SPF)
Bit depth : 16 bits
Compression mode : Lossy
Stream size : 338 MiB (2%)
Language : Swedish
Service kind : Complete Main
Default : No
Forced : No

Text
ID : 4
Format : UTF-8
Codec ID : S_TEXT/UTF8
Codec ID/Info : UTF-8 Plain Text
Duration : 1 h 43 min
Bit rate : 19 b/s
Count of elements : 567
Stream size : 14.8 KiB (0%)
Language : English
Default : No
Forced : No

Menu
00:00:00.000 : sv:Chapter 1
00:06:18.720 : sv:Chapter 2
00:11:46.079 : sv:Chapter 3
00:16:57.119 : sv:Chapter 4
00:26:18.719 : sv:Chapter 5
00:38:33.120 : sv:Chapter 6
00:50:35.040 : sv:Chapter 7
00:59:54.720 : sv:Chapter 8
01:07:23.040 : sv:Chapter 9
01:18:00.479 : sv:Chapter 10
01:25:11.040 : sv:Chapter 11
01:40:05.760 : sv:Chapter 12
01:45:24.960 : sv:Chapter 13



Підтримати купівлю інших фільмів можна тут.

Подяка пану AngryBirdsUA за матеріал.

Джерело: &



Золотий реліз (завантажене не впливає на рейтинг)
 Трекер:    Зареєстрований   

Завантажити / скачати фільм українською



відео для новачків



 Зареєстрований:   2019-03-03 15:07
 Розмір:   15.55 GB 
 Оцінка фільму:   8.6/10 (Голосів: 9)
   
Інші релізи
Ваш часовий пояс: GMT + 2 Години

Нова тема   Відповісти