Кіборг / Cyborg (1989) Remux 1080p Ukr/Eng | Sub Eng

Нові коментарі

Нова тема   Відповісти
Автор Повідомлення
staf777 
Відео Гуртом - підтримка та поширення
Відео Гуртом - підтримка та поширення


З нами з: 16.11.16
Востаннє: 22.04.19
Повідомлень: 2283

2019-03-03 12:36  
Кіборг / Cyborg (1989) Remux 1080p Ukr/Eng | Sub Eng

Кіборг / Cyborg (1989) Remux 1080p Ukr/Eng | Sub Eng


Жанр: фантастика, екшн
Країна: США



Кінокомпанія: Cannon Entertainment
Режисер: Альберт П'юн / Albert Pyun
Актори: Жан Клод Ван-Дам / Jean-Claude Van Damme, Дебора Ріхтер / Deborah Richter, Вінсент Клін / Vincent Klyn, Алекс Деніелс / Alex Daniels, Дейл Геддон / Dayle Haddon, Бейс Лунґ / Blaise Loong, Террі Бацон / Terrie Batson та ін.

Сюжет:
21-ше століття. Світ потерпає від суцільної анархії, та смертоносної чуми. І тільки Перл Профет, напівжінка-напівробот, володіє інформацією, що допоможе створити довгоочікувані ліки від чуми. Вона потрапляє до рук злого ватажка банди, що планує використати її знання, та саму вакцину у своїх цілях, і ці цілі не такі вже й милосердні. Тепер лише залізний кулак, та сталеві нерви воїна Гібсона можуть врятувати жінку-кіборга, та доправити її до Атланти, де купка вчених намагаються врятувати людство.


Тривалість: 01:26:24
Якість: Remux 1080p
Відео:
кодек:
розмір кадру: 1920x1080
бітрейт: 30.9 Мб/с

Аудіо # 1:
мова: українська
переклад: двоголосий закадровий
кодек: 2.0
бітрейт: 192 кб/с

Аудіо # 2:
мова: англійська
переклад: оригінал
кодек: 2.0
бітрейт: 939 кб/с

Джерело озвучення:


Субтитри:
мова: англійська
тип: пререндерні
формат: *.pgs
Скріншоти





MI
General
Unique ID : 213940153433857861344955412199567798198 (0xA0F35FF19D8345DBB14202C8B0D02FB6)
Complete name : S:\» HD українською » Фільми в HD\Фантастика\Cyborg (1989) Remux 1080p [UKR_ENG] [Hurtom].
Format :
Format version : Version 4
File size : 19.3 GiB
Duration : 1 h 26 min
Overall bit rate mode : Variable
Overall bit rate : 32.0 Mb/s
Movie name : Cyborg (1989) Remux 1080p [UKR_ENG] [Hurtom]
Encoded date : UTC 2019-03-03 16:10:31
Writing application : v30.1.0 ('Forever And More') 64-bit
Writing library : libebml v1.3.6 + v1.4.9
Cover : Yes
Attachments : cover.jpg

Video
ID : 1
Format : AVC
Format/Info : Advanced Video Codec
Format profile : [email protected]
Format settings : CABAC / 4 Ref Frames
Format settings, CABAC : Yes
Format settings, ReFrames : 4 frames
Codec ID : V_MPEG4/ISO/AVC
Duration : 1 h 26 min
Bit rate mode : Variable
Bit rate : 30.9 Mb/s
Maximum bit rate : 38.0 Mb/s
Width : 1 920 pixels
Height : 1 080 pixels
Display aspect ratio : 16:9
Frame rate mode : Constant
Frame rate : 23.976 (24000/1001) FPS
Color space : YUV
Chroma subsampling : 4:2:0
Bit depth : 8 bits
Scan type : Progressive
Bits/(Pixel*Frame) : 0.621
Stream size : 18.6 GiB (96%)
Title : Cyborg.1989.Remux.1080p
Default : Yes
Forced : No

Audio #1
ID : 2
Format : AC-3
Format/Info : Audio Coding 3
Commercial name : Dolby Digital
Codec ID : A_AC3
Duration : 1 h 26 min
Bit rate mode : Constant
Bit rate : 192 kb/s
Channel(s) : 2 channels
Channel layout : L R
Sampling rate : 48.0 kHz
Frame rate : 31.250 FPS (1536 SPF)
Bit depth : 16 bits
Compression mode : Lossy
Stream size : 119 MiB (1%)
Title : DVO 1+1
Language : Ukrainian
Service kind : Complete Main
Default : Yes
Forced : Yes

Audio #2
ID : 3
Format : XLL
Format/Info : Digital Theater Systems
Commercial name : -HD Master Audio
Codec ID : A_DTS
Duration : 1 h 26 min
Bit rate mode : Variable
Bit rate : 939 kb/s
Channel(s) : 2 channels
Channel layout : L R
Sampling rate : 48.0 kHz
Frame rate : 93.750 FPS (512 SPF)
Bit depth : 24 bits
Compression mode : Lossless
Stream size : 580 MiB (3%)
Title : -HD MA Original
Language : English
Default : No
Forced : No

Text
ID : 4
Format : PGS
Muxing mode : zlib
Codec ID : S_HDMV/PGS
Codec ID/Info : Picture based subtitle format used on BDs/HD-DVDs
Duration : 1 h 25 min
Bit rate : 9 017 b/s
Count of elements : 660
Stream size : 5.54 MiB (0%)
Title : English
Language : English
Default : No
Forced : No
Джерело: &
Особиста оцінка: 8 - мені сподобалося


Золотий реліз (завантажене не впливає на рейтинг)
 Трекер:    Зареєстрований   

Завантажити / скачати фільм українською



відео для новачків



 Зареєстрований:   2019-03-03 21:05
 Розмір:   19.33 GB 
 Оцінка фільму:   7.8/10 (Голосів: 4)
   
Інші релізи
   Кіборг / Cyborg (1989) AVC Ukr/Eng | Sub Eng staf777  4 / 0   2.1 GB   2019-02-09 10:37 
   Кіборг / Cyborg (1989) 1080p Ukr/Eng | Sub Eng drop_plz  1 / 0   7.94 GB   2018-07-18 13:26 
bot 
робот


З нами з: 30.09.07
Востаннє: 26.05.05
Повідомлень: 21236

2019-03-03 21:05  
Тему перенесено з Анонси релізів до форуму Фільми в HD


staf777

Ваш часовий пояс: GMT + 2 Години

Нова тема   Відповісти