Справжня Маккой / The Real McCoy (1993) Remux 1080p 3хUkr/Eng | Sub Eng

Нові коментарі

Нова тема   Відповісти
Автор Повідомлення
MakRA 
VIP


З нами з: 11.11.18
Востаннє: 18.10.19
Повідомлень: 435

2019-03-02 23:05  
Справжня Маккой / The Real McCoy (1993) Remux 1080p 3хUkr/Eng | Sub Eng

Справжня Маккой / The Real McCoy (1993) Remux 1080p 3хUkr/Eng | Sub Eng


Жанр: кримінальний, драма, трилер
Країна: США



Кінокомпанія: Bregman/Baer Productions, Capella International, Connexion Film Productions
Режисер: Рассел Малкехі [Russell Mulcahy]
Актори: Кім Бейсінгер [Kim Basinger], Вел Кілмер [Val Kilmer], Теренс Стемп [Terence Stamp], Гейлaрд Сартейн [Gailard Sartain], Зак Інгліш [Zach English], Рейнор Шейн [Raynor Scheine], Дебора Хобарт [Deborah Hobart], Енді Шталь [Andy Stahl].

Сюжет:
Карен Маккой (Кім Бейсінгер) - талановита спеціалістка з пограбування банків. За це вона потрапляє до в’язниці на шість років. Вийшовши на волю, Карен намагається розпочати нове життя, але злочинний світ не збирається її відпускати і шантажем примушує Маккой узятися за останню справу…


Тривалість: 01:45:03
Якість: Remux 1080p
Відео:
кодек:
розмір кадру: 1920 х 1080
бітрейт: 19 Мб/с

Аудіо # 1:
мова: українська
переклад: багатоголосий закадровий
кодек: 2.0
бітрейт: 192 кб/с

Аудіо # 2:
мова: українська
переклад: багатоголосий закадровий
кодек: 2.0
бітрейт: 192 кб/с

Аудіо # 3:
мова: українська
переклад: багатоголосий закадровий
кодек: 2.0
бітрейт: 192 кб/с
примітка: остання доріжка перероблена з 5.1, а загалом озвучки від України та НТН практично ідентичні

Аудіо # 4:
мова: англійська
переклад: оригінал
кодек: -HD MA 5.1
бітрейт: 2048 кб/с

Аудіо # 5:
мова: англійська
переклад: оригінал
кодек: 2.0
бітрейт: 1509 kb/s

Аудіо # 6:
мова: англійська
переклад: коментарі режисера Рассела Малкехі
кодек: 2.0
бітрейт: 192 kb/s

Субтитри: (SDH)
мова: англійська
тип: пререндерні
формат: *.pgs
Info
General
Unique ID : 58108511539920338360083077903504951371 (0x2BB74AD03B17FBA228B95171E2F8C84B)
Complete name : F:\Триллери, кримінал\The Real McCoy (1993) Remux 1080p 3хUkrEng Sub Eng [Hurtom].
Format :
Format version : Version 4 / Version 2
File size : 17.2 GiB
Duration : 1 h 45 min
Overall bit rate mode : Variable
Overall bit rate : 23.4 Mb/s
Movie name : Справжня Маккой / The Real McCoy (1993) Remux 1080p 3хUkr/Eng | Sub Eng [Hurtom]
Encoded date : UTC 2019-03-01 20:41:27
Writing application : v25.0.0 ('Prog Noir') 64-bit
Writing library : libebml v1.3.6 + v1.4.9
Cover : Yes
Attachments : small_cover.jpg / small_cover_land.jpg / cover.jpg / cover_land.jpg

Video
ID : 1
Format : AVC
Format/Info : Advanced Video Codec
Format profile : [email protected]
Format settings, CABAC : Yes
Format settings, RefFrames : 4 frames
Codec ID : V_MPEG4/ISO/AVC
Duration : 1 h 45 min
Bit rate mode : Variable
Bit rate : 19.0 Mb/s
Maximum bit rate : 35.0 Mb/s
Width : 1 920 pixels
Height : 1 080 pixels
Display aspect ratio : 16:9
Frame rate mode : Constant
Frame rate : 23.976 (24000/1001) FPS
Color space : YUV
Chroma subsampling : 4:2:0
Bit depth : 8 bits
Scan type : Progressive
Bits/(Pixel*Frame) : 0.382
Stream size : 13.9 GiB (81%)
Title : The Real McCoy (1993) Remux 1080p 3хUkr/Eng | Sub Eng [Hurtom]
Language : English
Default : Yes
Forced : No

Audio #1
ID : 2
Format : AC-3
Format/Info : Audio Coding 3
Format settings, Endianness : Big
Codec ID : A_AC3
Duration : 1 h 44 min
Bit rate mode : Constant
Bit rate : 192 kb/s
Channel(s) : 2 channels
Channel positions : Front: L R
Sampling rate : 48.0 kHz
Frame rate : 31.250 FPS (1536 SPF)
Bit depth : 16 bits
Compression mode : Lossy
Stream size : 144 MiB (1%)
Title : MVO [НТН]
Language : Ukrainian
Service kind : Complete Main
Default : Yes
Forced : Yes

Audio #2
ID : 3
Format : AC-3
Format/Info : Audio Coding 3
Format settings, Endianness : Big
Codec ID : A_AC3
Duration : 1 h 44 min
Bit rate mode : Constant
Bit rate : 192 kb/s
Channel(s) : 2 channels
Channel positions : Front: L R
Sampling rate : 48.0 kHz
Frame rate : 31.250 FPS (1536 SPF)
Bit depth : 16 bits
Compression mode : Lossy
Stream size : 144 MiB (1%)
Title : MVO [2+2]
Language : Ukrainian
Service kind : Complete Main
Default : No
Forced : No

Audio #3
ID : 4
Format : AC-3
Format/Info : Audio Coding 3
Format settings, Endianness : Big
Codec ID : A_AC3
Duration : 1 h 45 min
Bit rate mode : Constant
Bit rate : 192 kb/s
Channel(s) : 2 channels
Channel positions : Front: L R
Sampling rate : 48.0 kHz
Frame rate : 31.250 FPS (1536 SPF)
Bit depth : 16 bits
Compression mode : Lossy
Stream size : 144 MiB (1%)
Title : MVO [УКРАЇНА]
Language : Ukrainian
Service kind : Complete Main
Default : No
Forced : No

Audio #4
ID : 5
Format :
Format/Info : Digital Theater Systems
Format profile : MA / Core
Mode : 16
Format settings, Endianness : Big
Codec ID : A_DTS
Duration : 1 h 45 min
Bit rate mode : Variable / Constant
Bit rate : 2 048 kb/s / 1 509 kb/s
Channel(s) : 6 channels
Channel positions : Front: L C R, Side: L R, LFE
Sampling rate : 48.0 kHz
Frame rate : 93.750 FPS (512 SPF)
Bit depth : 16 bits
Compression mode : Lossless / Lossy
Stream size : 1.53 GiB (9%)
Title : Original -HD MA
Language : English
Default : No
Forced : No

Audio #5
ID : 6
Format :
Format/Info : Digital Theater Systems
Mode : 16
Format settings, Endianness : Big
Codec ID : A_DTS
Duration : 1 h 45 min
Bit rate mode : Constant
Bit rate : 1 509 kb/s
Channel(s) : 2 channels
Channel positions : Front: L R
Sampling rate : 48.0 kHz
Frame rate : 93.750 FPS (512 SPF)
Bit depth : 16 bits
Compression mode : Lossy
Stream size : 1.11 GiB (6%)
Title : Original
Language : English
Default : No
Forced : No

Audio #6
ID : 7
Format : AC-3
Format/Info : Audio Coding 3
Format settings, Endianness : Big
Codec ID : A_AC3
Duration : 1 h 45 min
Bit rate mode : Constant
Bit rate : 192 kb/s
Channel(s) : 2 channels
Channel positions : Front: L R
Sampling rate : 48.0 kHz
Frame rate : 31.250 FPS (1536 SPF)
Bit depth : 16 bits
Compression mode : Lossy
Stream size : 144 MiB (1%)
Title : Original | Commentary by Director Russell Mulcahy
Language : English
Service kind : Complete Main
Default : No
Forced : No

Text
ID : 8
Format : PGS
Muxing mode : zlib
Codec ID : S_HDMV/PGS
Codec ID/Info : Picture based subtitle format used on BDs/HD-DVDs
Duration : 1 h 36 min
Bit rate : 23.3 kb/s
Count of elements : 1822
Stream size : 16.0 MiB (0%)
Title : Eng (SDH)
Language : English
Default : No
Forced : No

Menu
00:00:00.000 : en:Chapter 00
00:09:30.152 : en:Chapter 01
00:19:33.922 : en:Chapter 02
00:30:36.960 : en:Chapter 03
00:45:04.493 : en:Chapter 04
00:59:25.520 : en:Chapter 05
01:16:34.464 : en:Chapter 06
01:28:53.119 : en:Chapter 07
Скріншоти
Джерело: &
Особиста оцінка: 10 - без зайвих вагань рекомендую всім!
За запис з НТН дякую п. Sando7, РОМЕО
За запис з 2+2 дякую п. Sando7
За доріжку від України дякую п. MutuLI, Merdiff
Також дякую п. Arsenfpu за створення попереднього релізу


Золотий реліз (завантажене не впливає на рейтинг)
 Трекер:    Зареєстрований   

Завантажити / скачати фільм українською



відео для новачків



 Зареєстрований:   2019-03-02 23:05
 Розмір:   17.15 GB 
 Оцінка фільму:   10/10 (Голосів: 10)
   
Інші релізи
   Справжня Маккой / The Real McCoy (1993) sokeel  0 / 0   793 MB   2016-10-26 22:18 
   Справжня Маккой / The Real McCoy (1993) 3xUkr Arsenfpu  1 / 0   1.75 GB   2016-10-23 20:38 
Panther2214 
Попереджень: 1
Попереджень: 1 


З нами з: 29.09.17
Востаннє: 18.10.19
Повідомлень: 367

2019-03-18 19:51  
Найкращий фільм дитинства про пограбування банку, та тільки обсяг занадто великий... Менший ріп у форматі 720 є?

Додано через 2 хвилини 10 секунд:

Найкращий фільм дитинства про пограбування банку, та тільки обсяг занадто великий... Менший ріп у форматі 720 є?

Ваш часовий пояс: GMT + 2 Години

Нова тема   Відповісти