Випадковий чоловік / The Accidental Husband (2008) 720p 4xUkr/Eng | Sub Ukr/Eng

Нові коментарі

Нова тема   Відповісти
Автор Повідомлення
Anonymous 







2019-03-02 19:43  
Випадковий чоловік / The Accidental Husband (2008) 720p 4xUkr/Eng | Sub Ukr/Eng

Випадковий чоловік / The Accidental Husband (2008) 720p 4xUkr/Eng | Sub Ukr/Eng


Жанр: комедія, мелодрама
Країна: США, Ірландія



Кінокомпанія: Yari Film Group (YFG), Blumhouse Productions, Team Todd
Режисер: Ґріффін Данн / Griffin Dunne
Актори: Ума Турман / Uma Thurman, Колін Ферт / Colin Firth, Джефрі Дін Морґан / Jeffrey Dean Morgan, Сем Шепард / Sam Shepard, Ліндсей Слоун / Lindsay Sloane, Джастіна Мочадо / Justina Machado, Аджей Найду / Ajay Naidu, Джефрі Тедморі / Jeffrey Tedmori, Нік Сандов / Nick Sandow та інші.

Сюжет:
Емма Ллойд (Ума Турман) – успішна, красива та енергійна доктор психології, її "коник" - психологічні консультації жінок щодо відносин з чоловіками. З цієї тематики вона веде популярне радіошоу та видає книгу-бестселер. Емма розумна, серйозна і точно знає, про що говорить, даючи жінкам поради, як знайти свою любов, не витрачаючи даремно час на "недостойних чоловіків".

Але одного разу через пораду Емми скасовує весілля наречена простого пожежника Патріка Саллівана (Джефрі Дін Морґан), чим руйнує його надії. Хлопець настільки засмучений, що вирішує помститись Еммі та просить в свого сусіда зламати публічні записи і створити підроблений шлюбний сертифікат між ним і Еммою.
Тим часом Емма сама планує одружитись з Річардом (Колін Ферт), розумним і успішним видавцем, але раптом виявляється, що вона вже нібито одружена з Патріком…

Тепер єдиний вихід для Емми - знайти свого "чоловіка" і розставити всі крапки над "і"...


Тривалість: 01:30:36
Якість: 720p
Відео:
кодек:
розмір кадру: 1280 х 690
бітрейт: 6084 кб/с

Аудіо # 1:
мова: українська
переклад: багатоголосий закадровий
кодек: 2.0 (стерео)
бітрейт: 192 кб/с

Аудіо # 2:
мова: українська
переклад: багатоголосий закадровий | Творче об'єднання "Дія"
кодек: 2.0 (стерео)
бітрейт: 192 кб/с
Інформація про озвучення:

Ролі озвучили: Джеффрі Дін Морґан — Михайло Жонін, Ума Турман — Наталя Ярошенко, Володимир Терещук, Лідія Муращенко і Дмитро Завадський

Фільм озвучено Творчим об'єднанням "Дія" на замовлення "JRC Film"
Аудіо # 3: ,
мова: українська
переклад: двоголосий закадровий
кодек: 2.0
бітрейт: 192 кб/с

Аудіо # 4:
мова: українська
переклад: двоголосий закадровий
ролі озвучили: Олег Лепенець та Людмила Ардельян
кодек: 2.0
бітрейт: 192 кб/с

Аудіо # 5:
мова: англійська
переклад: оригінал
кодек: 5.1
бітрейт: 640 кб/с

Субтитри # 1:
мова: українська
тип: програмні (м'які)
формат: *.srt
редагування/коригування, таймінг: igor911

Субтитри # 2-3:
мова: англійська (повні, два варіанта)
тип: програмні (м'які)
формат: *.srt

Збережено оригінальні розділи, як на Blu-ray
Info
Код:

Complete name               : The Accidental Husband (2008) [4xUkr,Eng sub.Ukr,Eng] 720p [Hurtom].
Format                      :
Format version              : Version 4
File size                   : 4.74 GiB
Duration                    : 1 h 30 min
Overall bit rate            : 7 488 kb/s
Movie name                  : Випадковий чоловік / The Accidental Husband (2008) [4xUkr,Eng sub.Ukr,Eng] 720p [Hurtom]
Encoded date                : UTC 2019-03-03 14:40:52
Writing application         : v31.0.0 ('Dolores In A Shoestand') 64-bit
Writing library             : libebml v1.3.6 + v1.4.9
Cover                       : Yes
Attachments                 : cover.jpg

Video
ID                          : 1
Format                      : AVC
Format/Info                 : Advanced Video Codec
Format profile              : [email protected]
Format settings             : CABAC / 9 Ref Frames
Format settings, CABAC      : Yes
Format settings, ReFrames   : 9 frames
Codec ID                    : V_MPEG4/ISO/AVC
Duration                    : 1 h 30 min
Bit rate                    : 6 084 kb/s
Width                       : 1 280 pixels
Height                      : 690 pixels
Display aspect ratio        : 1.85:1
Frame rate mode             : Constant
Frame rate                  : 23.976 (24000/1001) FPS
Color space                 : YUV
Chroma subsampling          : 4:2:0
Bit depth                   : 8 bits
Scan type                   : Progressive
Bits/(Pixel*Frame)          : 0.287
Stream size                 : 3.85 GiB (81%)
Title                       : Випадковий чоловік / The Accidental Husband (2008) 720p [FREEISLAND]
Writing library             : core 122 r2184 5c85e0a
Encoding settings           : cabac=1 / ref=9 / deblock=1:-3:-2 / analyse=0x3:0x113 / me=umh / subme=10 / psy=1 / psy_rd=1.10:0.10 / mixed_ref=1 / me_range=32 / chroma_me=1 / trellis=2 / 8x8dct=1 / cqm=0 / deadzone=21,11 / fast_pskip=0 / chroma_qp_offset=-3 / threads=6 / sliced_threads=0 / nr=0 / decimate=0 / interlaced=0 / bluray_compat=0 / constrained_intra=0 / bframes=8 / b_pyramid=2 / b_adapt=2 / b_bias=0 / direct=3 / weightb=1 / open_gop=0 / weightp=2 / keyint=230 / keyint_min=23 / scenecut=40 / intra_refresh=0 / rc=2pass / mbtree=0 / bitrate=6084 / ratetol=1.0 / qcomp=0.70 / qpmin=0 / qpmax=69 / qpstep=4 / cplxblur=20.0 / qblur=0.5 / ip_ratio=1.40 / pb_ratio=1.30 / aq=1:0.90
Language                    : English
Default                     : Yes
Forced                      : No
Color range                 : Limited
Color primaries             : BT.709
Transfer characteristics    : BT.709
Matrix coefficients         : BT.709

Audio #1
ID                          : 2
Format                      : AC-3
Format/Info                 : Audio Coding 3
Commercial name             : Dolby Digital
Codec ID                    : A_AC3
Duration                    : 1 h 30 min
Bit rate mode               : Constant
Bit rate                    : 192 kb/s
Channel(s)                  : 2 channels
Channel layout              : L R
Sampling rate               : 48.0 kHz
Frame rate                  : 31.250 FPS (1536 SPF)
Bit depth                   : 16 bits
Compression mode            : Lossy
Stream size                 : 124 MiB (3%)
Title                       : MVO [Volia CINE+] 2.0 [stereo] 192 Kbps
Language                    : Ukrainian
Service kind                : Complete Main
Default                     : Yes
Forced                      : Yes

Audio #2
ID                          : 3
Format                      : AC-3
Format/Info                 : Audio Coding 3
Commercial name             : Dolby Digital
Codec ID                    : A_AC3
Duration                    : 1 h 30 min
Bit rate mode               : Constant
Bit rate                    : 192 kb/s
Channel(s)                  : 2 channels
Channel layout              : L R
Sampling rate               : 48.0 kHz
Frame rate                  : 31.250 FPS (1536 SPF)
Bit depth                   : 16 bits
Compression mode            : Lossy
Stream size                 : 124 MiB (3%)
Title                       : MVO [DVD - JRCFilm] 2.0 [stereo] 192 Kbps
Language                    : Ukrainian
Service kind                : Complete Main
Default                     : No
Forced                      : No

Audio #3
ID                          : 4
Format                      : AC-3
Format/Info                 : Audio Coding 3
Commercial name             : Dolby Digital
Codec ID                    : A_AC3
Duration                    : 1 h 30 min
Bit rate mode               : Constant
Bit rate                    : 192 kb/s
Channel(s)                  : 2 channels
Channel layout              : L R
Sampling rate               : 48.0 kHz
Frame rate                  : 31.250 FPS (1536 SPF)
Bit depth                   : 16 bits
Compression mode            : Lossy
Stream size                 : 124 MiB (3%)
Title                       : DVO [K1], 2.0 192 Kbps
Language                    : Ukrainian
Service kind                : Complete Main
Default                     : No
Forced                      : No

Audio #4
ID                          : 5
Format                      : AC-3
Format/Info                 : Audio Coding 3
Commercial name             : Dolby Digital
Codec ID                    : A_AC3
Duration                    : 1 h 30 min
Bit rate mode               : Constant
Bit rate                    : 192 kb/s
Channel(s)                  : 2 channels
Channel layout              : L R
Sampling rate               : 48.0 kHz
Frame rate                  : 31.250 FPS (1536 SPF)
Bit depth                   : 16 bits
Compression mode            : Lossy
Stream size                 : 124 MiB (3%)
Title                       : DVO [TET], 2.0 192 Kbps
Language                    : Ukrainian
Service kind                : Complete Main
Default                     : No
Forced                      : No

Audio #5
ID                          : 6
Format                      : AC-3
Format/Info                 : Audio Coding 3
Commercial name             : Dolby Digital
Codec ID                    : A_AC3
Duration                    : 1 h 30 min
Bit rate mode               : Constant
Bit rate                    : 640 kb/s
Channel(s)                  : 6 channels
Channel layout              : L R C LFE Ls Rs
Sampling rate               : 48.0 kHz
Frame rate                  : 31.250 FPS (1536 SPF)
Bit depth                   : 16 bits
Compression mode            : Lossy
Stream size                 : 415 MiB (9%)
Title                       : Original, 5.1 640 Kbps
Language                    : English
Service kind                : Complete Main
Default                     : No
Forced                      : No

Text #1
ID                          : 7
Format                      : UTF-8
Codec ID                    : S_TEXT/UTF8
Codec ID/Info               : UTF-8 Plain Text
Duration                    : 1 h 30 min
Bit rate                    : 110 b/s
Count of elements           : 1080
Stream size                 : 72.9 KiB (0%)
Title                       : Ukr full [DVD - JRCFilm], edited by igor911
Language                    : Ukrainian
Default                     : No
Forced                      : No

Text #2
ID                          : 8
Format                      : UTF-8
Codec ID                    : S_TEXT/UTF8
Codec ID/Info               : UTF-8 Plain Text
Duration                    : 1 h 23 min
Bit rate                    : 80 b/s
Count of elements           : 1544
Stream size                 : 49.1 KiB (0%)
Title                       : Eng full v.1
Language                    : English
Default                     : No
Forced                      : No

Text #3
ID                          : 9
Format                      : UTF-8
Codec ID                    : S_TEXT/UTF8
Codec ID/Info               : UTF-8 Plain Text
Duration                    : 1 h 23 min
Bit rate                    : 80 b/s
Count of elements           : 1117
Stream size                 : 49.4 KiB (0%)
Title                       : Eng full v.2
Language                    : English
Default                     : No
Forced                      : No

Menu
00:00:00.000                : en:00:00:00.000
00:08:28.633                : en:00:08:28.633
00:15:17.917                : en:00:15:17.917
00:23:32.202                : en:00:23:32.202
00:31:04.196                : en:00:31:04.196
00:40:46.736                : en:00:40:46.736
00:49:33.971                : en:00:49:33.971
00:55:11.475                : en:00:55:11.475
01:03:58.918                : en:01:03:58.918
01:11:04.093                : en:01:11:04.093
01:19:10.955                : en:01:19:10.955
01:23:55.030                : en:01:23:55.030
Скріншоти
Джерело: &
Подяка за роботу над українськими доріжками: Sando7, Arsenfpu, karvai0, anonymous, maksym1990, xslim, РОМЕО.


 Трекер:    Зареєстрований   

Завантажити / скачати фільм українською



відео для новачків



 Зареєстрований:   2019-03-03 17:27
 Розмір:   4.74 GB 
 Оцінка фільму:   10/10 (Голосів: 5)
 ЗАЛИШАЙТЕСЬ ЯКОМОГА ДОВШЕ НА РОЗДАЧІ! ЗАВАНТАЖИВ САМ - ДАЙ ЗАВАНТАЖИТИ ІНШИМ!
   
Ваш часовий пояс: GMT + 2 Години

Нова тема   Відповісти