Ральф Руйнівник 2: Інтернетрі / Ralph Breaks the Internet (2018) 1080p H.265 Ukr/Eng | Sub Eng

Нові коментарі

Нова тема   Відповісти
Автор Повідомлення
Anonymous 







2019-03-02 16:01  
Ральф Руйнівник 2: Інтернетрі / Ralph Breaks the Internet (2018) 1080p H.265 Ukr/Eng | Sub Eng

Ральф Руйнівник 2: Інтернетрі / Ralph Breaks the Internet (2018) 1080p H.265 Ukr/Eng | Sub Eng


Жанр: комедія, мультфільм, пригоди, сімейний, фентезі
Країна: США
Кінокомпанія: Walt Disney Animation Studios, Walt Disney Pictures
Режисер: Філ Джонстон, Річ Мур
Актори: Джон К. Рейлі, Сара Сілверман, Галь Гадот, Тараджі П. Хенсон, Джек МакБрайер, Джейн Лінч, Алан Т'юдік, Альфред Моліна, Ед О’Ніл

Сюжет:
Творці «Крижаного Серця» і «Зоотрополіса» запрошують у пригоду нових часів! На безмежних просторах інтернету є фан на всі смаки: відомі програми, секретні чати, культові меми та герої, кумедне відео та ігри. Здоровань Ральф з такою силою поринає у віртуальний світ, що мережа починає глючити…

Тривалість: 01:52:31
Якість:
Відео:
кодек: H.265 (HEVC)
розмір кадру: 1920 x 804
бітрейт: 4 067 кб/с
бітова глибина: 10 біт
Увага! Перед завантаженням переконайтесь, що ваш пристрій відтворення (та/або ПЗ) підтримує H.265 (HEVC)

Аудіо # 1:
мова: українська
переклад: професійний дубльований
кодек: 5.1
бітрейт: 1510 кб/с

Аудіо # 2:
мова: англійська
переклад: оригінал
кодек: 5.1
бітрейт: 1510 кб/с

Субтитри # 1:
мова: англійська (Full),
тип: програмні (м'які)
формат: *.srt

Субтитри # 2:
мова: англійська (SDH),
тип: програмні (м'які)
формат: *.srt


Info
Код:
General
Unique ID                                : 261642321731081634539456707212770653918 (0xC4D67A6C3D107362125A674DC059B6DE)
Complete name                            : F:\Video\Ralph Breaks the Internet (2018) 1080p H.265 [UKR_ENG] [Hurtom].
Format                                   :
Format version                           : Version 4 / Version 2
File size                                : 5.57 GiB
Duration                                 : 1 h 52 min
Overall bit rate                         : 7 089 kb/s
Movie name                               : Ralph Breaks the Internet (2018)
Encoded date                             : UTC 2019-03-09 17:51:54
Writing application                      : v20.0.0 ('I Am The Sun') 64-bit
Writing library                          : libebml v1.3.5 + v1.4.8
Cover                                    : Yes
Attachments                              : cover.jpg

Video
ID                                       : 1
Format                                   : HEVC
Format/Info                              : High Efficiency Video Coding
Format profile                           : Main [email protected]@High
Codec ID                                 : V_MPEGH/ISO/HEVC
Duration                                 : 1 h 52 min
Bit rate                                 : 4 067 kb/s
Width                                    : 1 920 pixels
Height                                   : 804 pixels
Display aspect ratio                     : 2.40:1
Frame rate mode                          : Constant
Frame rate                               : 23.976 (24000/1001) FPS
Color space                              : YUV
Chroma subsampling                       : 4:2:0
Bit depth                                : 10 bits
Bits/(Pixel*Frame)                       : 0.110
Stream size                              : 3.20 GiB (57%)
Title                                    : Ralph Breaks the Internet (2018)
Writing library                          : x265 2.9+9-f74003e88622:[Windows][GCC 8.2.0][64 bit] 10bit
Encoding settings                        : cpuid=1111039 / frame-threads=7 / numa-pools=6 / wpp / no-pmode / no-pme / no-psnr / no-ssim / log-level=3 / input-csp=1 / input-res=1920x804 / interlace=0 / total-frames=0 / level-idc=41 / high-tier=1 / uhd-bd=0 / ref=4 / allow-non-conformance / no-repeat-headers / annexb / no-aud / no-hrd / info / hash=0 / no-temporal-layers / open-gop / min-keyint=24 / keyint=240 / gop-lookahead=0 / bframes=8 / b-adapt=2 / b-pyramid / bframe-bias=0 / rc-lookahead=20 / lookahead-slices=5 / scenecut=40 / radl=0 / no-intra-refresh / ctu=64 / min-cu-size=8 / rect / amp / max-tu-size=32 / tu-inter-depth=1 / tu-intra-depth=1 / limit-tu=0 / rdoq-level=0 / dynamic-rd=0.00 / no-ssim-rd / signhide / no-tskip / nr-intra=0 / nr-inter=0 / no-constrained-intra / no-strong-intra-smoothing / max-merge=2 / limit-refs=3 / no-limit-modes / me=3 / subme=7 / merange=57 / temporal-mvp / weightp / no-weightb / no-analyze-src-pics / deblock=-3:-3 / no-sao / no-sao-non-deblock / rd=3 / no-early-skip / rskip / no-fast-intra / no-tskip-fast / no-cu-lossless / no-b-intra / no-splitrd-skip / rdpenalty=0 / psy-rd=2.00 / psy-rdoq=0.00 / no-rd-refine / no-lossless / cbqpoffs=0 / crqpoffs=0 / rc=crf / crf=17.0 / qcomp=0.70 / qpstep=4 / stats-write=0 / stats-read=0 / vbv-maxrate=50000 / vbv-bufsize=50000 / vbv-init=0.9 / crf-max=30.0 / crf-min=0.0 / ipratio=1.40 / pbratio=1.30 / aq-mode=1 / aq-strength=1.00 / cutree / zone-count=0 / no-strict-cbr / qg-size=32 / no-rc-grain / qpmax=69 / qpmin=0 / no-const-vbv / sar=1 / overscan=0 / videoformat=5 / range=0 / colorprim=1 / transfer=1 / colormatrix=1 / chromaloc=0 / display-window=0 / max-cll=0,0 / min-luma=0 / max-luma=1023 / log2-max-poc-lsb=8 / vui-timing-info / vui-hrd-info / slices=1 / no-opt-qp-pps / no-opt-ref-list-length-pps / no-multi-pass-opt-rps / scenecut-bias=0.05 / no-opt-cu-delta-qp / no-aq-motion / no-hdr / no-hdr-opt / no-dhdr10-opt / no-idr-recovery-sei / analysis-reuse-level=5 / scale-factor=0 / refine-intra=0 / refine-inter=0 / refine-mv=0 / no-limit-sao / ctu-info=0 / no-lowpass-dct / refine-mv-type=0 / copy-pic=1 / max-ausize-factor=1.0 / no-dynamic-refine / no-single-sei
Language                                 : English
Default                                  : Yes
Forced                                   : No
Color range                              : Limited
Color primaries                          : BT.709
Transfer characteristics                 : BT.709
Matrix coefficients                      : BT.709

Audio #1
ID                                       : 2
Format                                   :
Format/Info                              : Digital Theater Systems
Codec ID                                 : A_DTS
Duration                                 : 1 h 52 min
Bit rate mode                            : Constant
Bit rate                                 : 1 509 kb/s
Channel(s)                               : 6 channels
Channel positions                        : Front: L C R, Side: L R, LFE
Sampling rate                            : 48.0 kHz
Frame rate                               : 93.750 FPS (512 SPF)
Bit depth                                : 24 bits
Compression mode                         : Lossy
Stream size                              : 1.19 GiB (21%)
Title                                    : ПД - Blu-Ray
Language                                 : Ukrainian
Default                                  : Yes
Forced                                   : Yes

Audio #2
ID                                       : 3
Format                                   :
Format/Info                              : Digital Theater Systems
Codec ID                                 : A_DTS
Duration                                 : 1 h 52 min
Bit rate mode                            : Constant
Bit rate                                 : 1 509 kb/s
Channel(s)                               : 6 channels
Channel positions                        : Front: L C R, Side: L R, LFE
Sampling rate                            : 48.0 kHz
Frame rate                               : 93.750 FPS (512 SPF)
Bit depth                                : 24 bits
Compression mode                         : Lossy
Stream size                              : 1.19 GiB (21%)
Title                                    : Original
Language                                 : English
Default                                  : No
Forced                                   : No

Text #1
ID                                       : 4
Format                                   : UTF-8
Codec ID                                 : S_TEXT/UTF8
Codec ID/Info                            : UTF-8 Plain Text
Duration                                 : 1 h 51 min
Bit rate                                 : 77 b/s
Count of elements                        : 1886
Stream size                              : 63.1 KiB (0%)
Title                                    : Full
Language                                 : English
Default                                  : No
Forced                                   : No

Text #2
ID                                       : 5
Format                                   : UTF-8
Codec ID                                 : S_TEXT/UTF8
Codec ID/Info                            : UTF-8 Plain Text
Duration                                 : 1 h 51 min
Bit rate                                 : 90 b/s
Count of elements                        : 2473
Stream size                              : 73.8 KiB (0%)
Title                                    : SDH
Language                                 : English
Default                                  : No
Forced                                   : No

Menu
00:00:00.000                             : en:00:00:00.000
00:04:09.666                             : en:00:04:09.666
00:11:07.417                             : en:00:11:07.417
00:17:28.923                             : en:00:17:28.923
00:23:43.881                             : en:00:23:43.881
00:27:54.589                             : en:00:27:54.589
00:34:18.807                             : en:00:34:18.807
00:41:39.956                             : en:00:41:39.956
00:51:27.709                             : en:00:51:27.709
00:58:04.606                             : en:00:58:04.606
01:01:50.957                             : en:01:01:50.957
01:06:17.306                             : en:01:06:17.306
01:12:31.806                             : en:01:12:31.806
01:19:10.120                             : en:01:19:10.120
01:27:24.030                             : en:01:27:24.030
01:38:26.775                             : en:01:38:26.775
Світлини




Подяка пану Hanway за синхронізацію звуку.


Джерело: &
Особиста оцінка: 0 - не дивився


 Трекер:    Зареєстрований   

Завантажити / скачати мультфільм українською



відео для новачків



 Зареєстрований:   2019-03-10 22:47
 Розмір:   5.57 GB 
 Оцінка мультфільму:   9.1/10 (Голосів: 22)
   
bebebebebebebe 
Поважний учасник


З нами з: 22.01.18
Востаннє: 30.11.20
Повідомлень: 160

2019-03-09 02:56  
Є декілька хороших жартів, загалом, звісно, нічого особливого, але в рамках розслабитися норм, на один раз подивитися добре )
Anonymous 







2019-03-10 22:47  
Заміна укр. доріжки на ДТС 5.1
11FrYkT 
Модератор відео


З нами з: 20.02.11
Востаннє: 30.11.20
Повідомлень: 7038

2019-03-11 11:40  
-Star-Lord- написано:
Заміна укр. доріжки на ДТС 5.1

це не блурей, з чого Ви взяли?

Anonymous 







2019-03-11 16:47  
11FrYkT написано:
це не блурей, з чого Ви взяли?

Зазвичай така якість тільки з блюра, тому так подумав і написав. А це не з блюра?

Neolo 
Поважний учасник


З нами з: 13.11.10
Востаннє: 29.11.20
Повідомлень: 154

2019-05-22 07:16  
Чому HEVC 1080p 5 Гектарiв, коли той же AVC h264 - всього 2 Г ? Геть сенс втрачений.
sergiyko.5 
Забанено
Забанено


З нами з: 25.02.16
Востаннє: 29.10.20
Повідомлень: 3650

2019-05-22 07:45  
Neolo написано:
Чому HEVC 1080p 5 Гектарiв, коли той же AVC h264 - всього 2 Г ? Геть сенс втрачений.


А ви розумієте різницю:
ріп AVC 2Gb розмір кадру: 1024 х 428
ріп HEVC 1080p 5Gb розмір кадру: 1920 x 804
і
ріп AVC 1080p 13Gb розмір кадру: 1920 x 804
?

saragornus 
Новенький


З нами з: 23.12.13
Востаннє: 30.10.20
Повідомлень: 4

2019-07-15 21:26  
Хто хоче дивитися на телевізорі - не качайте - я вже два релізи скачав (1080 і 720) - звук на телевізорі НЕ читається! Те саме на компютері - звук не читається....
Anonymous 







2019-07-16 08:16  
saragornus
Бо перед тим, як качати, впевніться, що Ваш зчитувач підтримує x265 та аудіокодек .

saragornus 
Новенький


З нами з: 23.12.13
Востаннє: 30.10.20
Повідомлень: 4

2019-07-16 09:43  
Так раніше все що звідси качав читалось нормально - що змінилось? Для чого робити якісь "навороти", які будуть для обмеженого кола людей? Так що тепер - кожен раз як вийде новий фільм купувати новий телевізор? (обновлення ПО на телевізорі китайського виробництва не варіант взагалі)
Anonymous 







2019-07-16 15:08  
saragornus
Якщо Вам не подобається такий формат, ось, звичайний реліз в 1080p - https://toloka.to/t99034.
Я стараюся додавати максимально якісні доріжки до своїх релізів, бо вся техніка, якою користуюся, підтримує ці всі формати і кодеки - що комп'ютер, що телевізор, що телефон.
Комп'ютер і телефон можна навчити зчитувати, а от з телевізором не допоможу.

Berenices 
Новенький


З нами з: 03.06.15
Востаннє: 25.11.20
Повідомлень: 11

2020-08-25 01:34  
Дякую за якісний звук у компактному розмірі. У тутешніх роздачах це нині виняток.
Ваш часовий пояс: GMT + 2 Години

Нова тема   Відповісти