Код / The Code (2011) 1080p Ukr/Eng | Sub Eng

Нові коментарі

Нова тема   Відповісти
Автор Повідомлення
Anonymous 







2019-03-02 14:13  
Код / The Code (2011) 1080p Ukr/Eng | Sub Eng

Код / The Code (2011) 1080p Ukr/Eng | Sub Eng


Жанр: Документальний, наука, математика
Країна: Великобританія
Режисер: Стівен Кутер, Майкл Лахман, Ден Чайлд / Stephen Cooter, Michael Lachmann, Dan Child
Актори: Маркус дю Сотой

Сюжет:
Одне з питань, які хвилюють людство - чому світ такий, яким він є? Сучасна наука дає відповідь на це питання: наш світ підпорядковується певним числовим закономірностям. Середньовічне духовенство вважало, що ці числа були створені Богом. Але чи так це насправді? Математик та популяризатор науки, професор Оксфордського університету Маркус дю Сотої розповідає в цьому фільмі про те, як закони математики пронизують своєю строгою красою всі форми нашого світу.

Тривалість: 1 серія: 58:30 (цілком серій: 3)
Перелік серій
1 серія: Числа / Numbers
2 серія: Форми / Shapes
3 серія: Передбачення / Prediction
Якість:
Відео:
кодек:
розмір кадру: 1920 x 1080
бітрейт: 11 369 кб/с

Аудіо # 1:
мова: українська
переклад: одноголосий закадровий | Da Vinci Learning
кодек: AC-3 2.0
бітрейт: 128 кб/с

Аудіо # 2:
мова: англійська
переклад: оригінал
кодек: E-AC-3 2.0
бітрейт: 224 кб/с

Субтитри # 1:
мова: англійська (Full),
тип: програмні (м'які)
формат: *.srt


Info
Код:
General
Unique ID                                : 21249322427587738487895886573068076587 (0xFFC787B9BE4D0885E9FFC6C4E3FC62B)
Complete name                            : F:\Video\The Code (2011) 1080p [UKR_ENG] [Hurtom]\1. The Code (2011) S01E01 1080p [UKR_ENG] [Hurtom].
Format                                   :
Format version                           : Version 4 / Version 2
File size                                : 4.83 GiB
Duration                                 : 58 min 57 s
Overall bit rate mode                    : Variable
Overall bit rate                         : 11.7 Mb/s
Movie name                               : The Code (2011) - S01E01 - Numbers
Encoded date                             : UTC 2019-03-02 09:05:50
Writing application                      : v20.0.0 ('I Am The Sun') 64-bit
Writing library                          : libebml v1.3.5 + v1.4.8
Cover                                    : Yes
Attachments                              : Cover.png

Video
ID                                       : 1
Format                                   : AVC
Format/Info                              : Advanced Video Codec
Format profile                           : [email protected]
Format settings                          : CABAC / 4 Ref Frames
Format settings, CABAC                   : Yes
Format settings, ReFrames                : 4 frames
Codec ID                                 : V_MPEG4/ISO/AVC
Duration                                 : 58 min 57 s
Bit rate mode                            : Variable
Bit rate                                 : 11.4 Mb/s
Maximum bit rate                         : 15.0 Mb/s
Width                                    : 1 920 pixels
Height                                   : 1 080 pixels
Display aspect ratio                     : 16:9
Frame rate mode                          : Constant
Frame rate                               : 25.000 FPS
Color space                              : YUV
Chroma subsampling                       : 4:2:0
Bit depth                                : 8 bits
Scan type                                : Progressive
Bits/(Pixel*Frame)                       : 0.219
Stream size                              : 4.68 GiB (97%)
Title                                    : The Code (2011) - S01E01 - Numbers
Language                                 : English
Default                                  : Yes
Forced                                   : No
Color range                              : Limited
Color primaries                          : BT.709
Transfer characteristics                 : BT.709
Matrix coefficients                      : BT.709

Audio #1
ID                                       : 2
Format                                   : AC-3
Format/Info                              : Audio Coding 3
Codec ID                                 : A_AC3
Duration                                 : 58 min 57 s
Bit rate mode                            : Constant
Bit rate                                 : 128 kb/s
Channel(s)                               : 2 channels
Channel positions                        : Front: L R
Sampling rate                            : 48.0 kHz
Frame rate                               : 31.250 FPS (1536 SPF)
Bit depth                                : 16 bits
Compression mode                         : Lossy
Stream size                              : 54.0 MiB (1%)
Title                                    : ОЗ - Da Vinci Learning / / 2.0 / 48 kHz / 128 kbps / 16-bit
Language                                 : Ukrainian
Service kind                             : Complete Main
Default                                  : Yes
Forced                                   : Yes

Audio #2
ID                                       : 3
Format                                   : E-AC-3
Format/Info                              : Enhanced Audio Coding 3
Codec ID                                 : A_EAC3
Duration                                 : 58 min 57 s
Bit rate mode                            : Constant
Bit rate                                 : 224 kb/s
Channel(s)                               : 2 channels
Channel positions                        : Front: L R
Sampling rate                            : 48.0 kHz
Frame rate                               : 187.500 FPS (256 SPF)
Compression mode                         : Lossy
Stream size                              : 94.5 MiB (2%)
Title                                    : Original / E- / 2.0 / 48 kHz / 224 kbps / 16-bit
Language                                 : English
Service kind                             : Complete Main
Default                                  : No
Forced                                   : No

Text
ID                                       : 4
Format                                   : UTF-8
Codec ID                                 : S_TEXT/UTF8
Codec ID/Info                            : UTF-8 Plain Text
Duration                                 : 58 min 19 s
Bit rate                                 : 82 b/s
Count of elements                        : 930
Stream size                              : 35.2 KiB (0%)
Title                                    : Full
Language                                 : English
Default                                  : No
Forced                                   : No
Світлини




| | |
V V V
Потрібна допомога зі створенням субтитрів українською.
Команда готова надавати українські доріжки для документалок зарання, взамін на те, що хтось робитиме українські субтитри. Якщо бажаєте допомогти - пишіть в ПП.


Джерело: & & &
Особиста оцінка: 0 - не дивився


Бронзовий реліз (на рейтинг впливає 75% завантаженого)
 Трекер:    Зареєстрований   

Завантажити / скачати торрент



відео для новачків



 Зареєстрований:   2019-03-02 14:18
 Розмір:   13.68 GB 
 Оцінка:   9.3/10 (Голосів: 12)
   
SaratRich 
VIP


З нами з: 29.05.12
Востаннє: 11.04.21
Повідомлень: 361

2019-03-02 14:27  
Не хочу (хочу) себе нахвалювати, але тут зрозуміліше пояснено https://toloka.to/t85114, але мушу визнати затягнуто. Wink (1)
VitNi 
Забанено
Забанено


З нами з: 05.05.12
Востаннє: 05.01.21
Повідомлень: 216

2019-03-02 22:18  
SaratRich

Це просто щось.
Ти можеш сказати - нащо ти дав посилання на дебілізм?
Я витратив час щоб слухати марення якогось дебіла.
Що, по твоєму, корисного там сказано.
Назви хоча би щось!

andrm 
Свій


З нами з: 17.03.09
Востаннє: 14.04.21
Повідомлень: 79

2019-08-16 14:15  
SaratRich написано:
Не хочу (хочу) себе нахвалювати, але тут зрозуміліше пояснено https://toloka.to/t85114, але мушу визнати затягнуто. Wink (1)


Ці речі не можна порівняти. Ви пропонуєте філософію, псевдонауку проти науково популярного фільму.

Ваш часовий пояс: GMT + 2 Години

Нова тема   Відповісти