Месники / The Avengers (2012) UHD Remux 2160p 4K HDR H.265 Ukr/Eng | Sub Ukr/Eng

Нові коментарі

Нова тема   Відповісти
Автор Повідомлення
Argentum 
Поважний учасник


З нами з: 25.09.11
Востаннє: 23.04.19
Повідомлень: 192

2019-03-02 13:28  
Месники / The Avengers (2012) UHD Remux 2160p 4K HDR H.265 Ukr/Eng | Sub Ukr/Eng

Месники / The Avengers (2012) UHD Remux 2160p 4K HDR H.265 Ukr/Eng | Sub Ukr/Eng


Жанр: фантастика, екшн, пригодницький
Країна: США



Кінокомпанія: Marvel Studios, Walt Disney Pictures
Режисер: Джосс Відон
Актори: Роберт Дауні-молодший, Кріс Еванс, Марк Руффало, Кріс Гемсворт, Скарлет Йоганссон, Джеремі Реннер, Том Гідлстон, Семюель Л. Джексон, Кларк Грегг, Кобі Смолдерс, Стеллан Скарсгард та інші.

Сюжет:
Нік Фьюрі і секретне міжнародне агентство ЩИТ збирає разом супергероїв, серед яких Тор, Халк, Капітан Америка та Залізна Людина, і формує загін Месників, щоб захистити Землю від Локі та його інопланетної армії.


Тривалість: 02:22:54
Якість: 4K UltraHD Remux 2160p
Відео:
кодек: H.265 (HEVC)
розмір кадру: 3840 х 2160
бітрейт: 43 Мб/с
бітова глибина: 10 біт
кольоровий простір: BT.2020 (HDR)

Аудіо # 1:
мова: українська
переклад: професійний дубльований
кодек: 5.1
бітрейт: 1509 кб/с

Аудіо # 2:
мова: українська
переклад: професійний дубльований
кодек: 5.1
бітрейт: 640 кб/с

Аудіо # 3:
мова: англійська
переклад: оригінал
кодек: 5.1
бітрейт: 1509 кб/с

Субтитри 1-2: (форсовані, повні)
мова: українська
тип: програмні (м'які)
формат: *.srt

Субтитри 3-5: (форсовані, повні, SDH)
мова: англійська
тип: програмні (м'які)
формат: *.srt
Info
General
Unique ID : 203022326605273859251494896365322332225 (0x98BCAD8588DB474F3BAEF8E8E2976841)
Complete name : The Avengers (2012) [Ukr, Eng] Remux HDR 2160p [Hurtom].
Format :
Format version : Version 4
File size : 46.5 GiB
Duration : 2 h 22 min
Overall bit rate : 46.6 Mb/s
Movie name : The Avengers (2012) [Ukr, Eng] Remux HDR 2160p
Encoded date : UTC 2019-02-27 17:27:47
Writing application : v31.0.0 ('Dolores In A Shoestand') 64-bit
Writing library : libebml v1.3.6 + v1.4.9
Attachments : avengers-2012-_550.jpg

Video
ID : 1
Format : HEVC
Format/Info : High Efficiency Video Coding
Commercial name : HDR10
Format profile : Main [email protected]@High
Codec ID : V_MPEGH/ISO/HEVC
Duration : 2 h 22 min
Bit rate : 43.0 Mb/s
Width : 3 840 pixels
Height : 2 160 pixels
Display aspect ratio : 16:9
Frame rate mode : Constant
Frame rate : 23.976 (24000/1001) FPS
Color space : YUV
Chroma subsampling : 4:2:0 (Type 2)
Bit depth : 10 bits
Bits/(Pixel*Frame) : 0.216
Stream size : 42.9 GiB (92%)
Title : HEVC 3840*2160 HDR10 @ 43 Mbps
Language : Multiple languages
Default : Yes
Forced : Yes
Color range : Limited
Color primaries : BT.2020
Transfer characteristics : PQ
Matrix coefficients : BT.2020 non-constant
Mastering display color pri : Display P3
Mastering display luminance : min: 0.0001 cd/m2, max: 1000 cd/m2

Audio #1
ID : 2
Format :
Format/Info : Digital Theater Systems
Codec ID : A_DTS
Duration : 2 h 22 min
Bit rate mode : Constant
Bit rate : 1 509 kb/s
Channel(s) : 6 channels
Channel layout : C L R Ls Rs LFE
Sampling rate : 48.0 kHz
Frame rate : 93.750 FPS (512 SPF)
Bit depth : 24 bits
Compression mode : Lossy
Delay relative to video : -23 ms
Stream size : 1.51 GiB (3%)
Title : 5.1 1509 kbps
Language : Ukrainian
Default : Yes
Forced : Yes

Audio #2
ID : 3
Format : AC-3
Format/Info : Audio Coding 3
Commercial name : Dolby Digital
Codec ID : A_AC3
Duration : 2 h 22 min
Bit rate mode : Constant
Bit rate : 640 kb/s
Channel(s) : 6 channels
Channel layout : L R C LFE Ls Rs
Sampling rate : 48.0 kHz
Frame rate : 31.250 FPS (1536 SPF)
Bit depth : 16 bits
Compression mode : Lossy
Delay relative to video : -23 ms
Stream size : 654 MiB (1%)
Title : 5.1 @ 640 Kbps
Language : Ukrainian
Service kind : Complete Main
Default : No
Forced : No

Audio #3
ID : 4
Format :
Format/Info : Digital Theater Systems
Codec ID : A_DTS
Duration : 2 h 22 min
Bit rate mode : Constant
Bit rate : 1 509 kb/s
Channel(s) : 6 channels
Channel layout : C L R Ls Rs LFE
Sampling rate : 48.0 kHz
Frame rate : 93.750 FPS (512 SPF)
Bit depth : 24 bits
Compression mode : Lossy
Delay relative to video : -23 ms
Stream size : 1.51 GiB (3%)
Title : 5.1 1509 kbps
Language : English
Default : No
Forced : No

Text #1
ID : 5
Format : UTF-8
Codec ID : S_TEXT/UTF8
Codec ID/Info : UTF-8 Plain Text
Duration : 2 h 4 min
Bit rate : 1 b/s
Count of elements : 43
Stream size : 1.67 KiB (0%)
Title : Forced
Language : Ukrainian
Default : Yes
Forced : Yes

Text #2
ID : 6
Format : UTF-8
Codec ID : S_TEXT/UTF8
Codec ID/Info : UTF-8 Plain Text
Duration : 2 h 15 min
Bit rate : 88 b/s
Count of elements : 1765
Stream size : 87.9 KiB (0%)
Title : Full
Language : Ukrainian
Default : No
Forced : No

Text #3
ID : 7
Format : UTF-8
Codec ID : S_TEXT/UTF8
Codec ID/Info : UTF-8 Plain Text
Duration : 3 min 46 s
Bit rate : 24 b/s
Count of elements : 31
Stream size : 700 Bytes (0%)
Title : Forced
Language : English
Default : No
Forced : No

Text #4
ID : 8
Format : UTF-8
Codec ID : S_TEXT/UTF8
Codec ID/Info : UTF-8 Plain Text
Duration : 2 h 15 min
Bit rate : 53 b/s
Count of elements : 1753
Stream size : 53.3 KiB (0%)
Title : Full
Language : English
Default : No
Forced : No

Text #5
ID : 9
Format : UTF-8
Codec ID : S_TEXT/UTF8
Codec ID/Info : UTF-8 Plain Text
Duration : 2 h 15 min
Bit rate : 59 b/s
Count of elements : 2043
Stream size : 58.9 KiB (0%)
Title : SDH
Language : English
Default : No
Forced : No
Скріншоти







Джерело:
Особиста оцінка: 8 - мені сподобалося

Перед завантаженням перевірте чи ваше обладнання підтримує H.265 (HEVC) HDR!


Не забуваємо тиснути "Дякую"!


Золотий реліз (завантажене не впливає на рейтинг)
 Трекер:    Зареєстрований   

Завантажити / скачати фільм українською



відео для новачків



 Зареєстрований:   2019-03-04 13:37
 Розмір:   46.54 GB 
 Оцінка фільму:   8.8/10 (Голосів: 8)
   
Інші релізи
   Месники / The Avengers (2012) 1080p (60fps) Ukr/Eng | Sub Ukr/Eng grizz  5 / 0   22.1 GB   2012-10-03 17:00 
   Месники / The Avengers (2012) 720p Drool  10 / 0   4.3 GB   2012-09-19 14:17 
   Месники / The Avengers (2012) Remux 1080p Ukr/Eng | Sub Ukr/Eng AngryBirdsUA  8 / 0   29.35 GB   2012-08-31 22:57 
   Месники / The Avengers (2012) 720p Ukr/Eng | Sub Ukr/Eng AngryBirdsUA  22 / 0   6.42 GB   2012-08-23 15:54 
   Месники / The Avengers (2012) 1080p Ukr/Eng | Sub Ukr/Eng 11FrYkT  14 / 0   12.51 GB   2012-08-23 07:25 
   Месники / The Avengers (2012) [5.1 ] Ліцензія seroga13  0 / 0   458 MB   2012-08-21 18:56 
   Месники / The Avengers (2012) AVC Ukr/Eng | Sub Ukr/Eng Gelios  9 / 0   3.36 GB   2012-08-21 12:38 
   Месники / The Avengers (2012) Blu-ray 1080p Eng/Rus/Ukr | Sub Eng/Rus/Ukr/Multi Drool  2 / 0   38.54 GB   2012-08-21 09:10 
   Месники / The Avengers (2012) LiquidatorFX  18 / 0   1.46 GB   2012-08-21 05:38 
   Месники / The Avengers (2012) LiquidatorFX  15 / 0   2.19 GB   2012-08-21 05:14 
bot 
робот


З нами з: 30.09.07
Востаннє: 26.05.05
Повідомлень: 21238

2019-03-02 13:28  
Тему перенесено з Фільми в HD до форуму Анонси релізів


Argentum

bot 
робот


З нами з: 30.09.07
Востаннє: 26.05.05
Повідомлень: 21238

2019-03-04 13:37  
Тему перенесено з Анонси релізів до форуму Фільми в HD


Argentum

Ваш часовий пояс: GMT + 2 Години

Нова тема   Відповісти